  0
SECTION
  2
HEADER
  9
$ACADVER
  1
AC1032
  9
$ACADMAINTVER
 90
      155
  9
$DWGCODEPAGE
  3
ANSI_932
  9
$LASTSAVEDBY
  1
FTM530544
  9
$REQUIREDVERSIONS
160
                 0
  9
$INSBASE
 10
0.0
 20
0.0
 30
0.0
  9
$EXTMIN
 10
472.0986167291475
 20
293.448747964082
 30
0.0
  9
$EXTMAX
 10
682.0986167291476
 20
590.4487479640819
 30
0.0
  9
$LIMMIN
 10
0.0
 20
0.0
  9
$LIMMAX
 10
420.0
 20
297.0
  9
$ORTHOMODE
 70
     1
  9
$REGENMODE
 70
     1
  9
$FILLMODE
 70
     1
  9
$QTEXTMODE
 70
     0
  9
$MIRRTEXT
 70
     0
  9
$LTSCALE
 40
1.0
  9
$ATTMODE
 70
     1
  9
$TEXTSIZE
 40
2.5
  9
$TRACEWID
 40
1.0
  9
$TEXTSTYLE
  7
Standard
  9
$CLAYER
  8
防火材
  9
$CELTYPE
  6
ByLayer
  9
$CECOLOR
 62
   256
  9
$CELTSCALE
 40
1.0
  9
$DISPSILH
 70
     0
  9
$DIMSCALE
 40
1.0
  9
$DIMASZ
 40
2.5
  9
$DIMEXO
 40
0.625
  9
$DIMDLI
 40
3.75
  9
$DIMRND
 40
0.0
  9
$DIMDLE
 40
0.0
  9
$DIMEXE
 40
1.25
  9
$DIMTP
 40
0.0
  9
$DIMTM
 40
0.0
  9
$DIMTXT
 40
2.5
  9
$DIMCEN
 40
2.5
  9
$DIMTSZ
 40
0.0
  9
$DIMTOL
 70
     0
  9
$DIMLIM
 70
     0
  9
$DIMTIH
 70
     0
  9
$DIMTOH
 70
     0
  9
$DIMSE1
 70
     0
  9
$DIMSE2
 70
     0
  9
$DIMTAD
 70
     1
  9
$DIMZIN
 70
     8
  9
$DIMBLK
  1

  9
$DIMASO
 70
     1
  9
$DIMSHO
 70
     1
  9
$DIMPOST
  1

  9
$DIMAPOST
  1

  9
$DIMALT
 70
     0
  9
$DIMALTD
 70
     3
  9
$DIMALTF
 40
0.03937007874016
  9
$DIMLFAC
 40
1.0
  9
$DIMTOFL
 70
     1
  9
$DIMTVP
 40
0.0
  9
$DIMTIX
 70
     0
  9
$DIMSOXD
 70
     0
  9
$DIMSAH
 70
     0
  9
$DIMBLK1
  1

  9
$DIMBLK2
  1

  9
$DIMSTYLE
  2
ISO-25
  9
$DIMCLRD
 70
     0
  9
$DIMCLRE
 70
     0
  9
$DIMCLRT
 70
     0
  9
$DIMTFAC
 40
1.0
  9
$DIMGAP
 40
0.625
  9
$DIMJUST
 70
     0
  9
$DIMSD1
 70
     0
  9
$DIMSD2
 70
     0
  9
$DIMTOLJ
 70
     0
  9
$DIMTZIN
 70
     8
  9
$DIMALTZ
 70
     0
  9
$DIMALTTZ
 70
     0
  9
$DIMUPT
 70
     0
  9
$DIMDEC
 70
     2
  9
$DIMTDEC
 70
     2
  9
$DIMALTU
 70
     2
  9
$DIMALTTD
 70
     3
  9
$DIMTXSTY
  7
Standard
  9
$DIMAUNIT
 70
     0
  9
$DIMADEC
 70
     0
  9
$DIMALTRND
 40
0.0
  9
$DIMAZIN
 70
     0
  9
$DIMDSEP
 70
    44
  9
$DIMATFIT
 70
     3
  9
$DIMFRAC
 70
     0
  9
$DIMLDRBLK
  1

  9
$DIMLUNIT
 70
     2
  9
$DIMLWD
 70
    -2
  9
$DIMLWE
 70
    -2
  9
$DIMTMOVE
 70
     0
  9
$DIMFXL
 40
1.0
  9
$DIMFXLON
 70
     0
  9
$DIMJOGANG
 40
0.7853981633974483
  9
$DIMTFILL
 70
     0
  9
$DIMTFILLCLR
 70
     0
  9
$DIMARCSYM
 70
     0
  9
$DIMLTYPE
  6

  9
$DIMLTEX1
  6

  9
$DIMLTEX2
  6

  9
$DIMTXTDIRECTION
 70
     0
  9
$LUNITS
 70
     2
  9
$LUPREC
 70
     4
  9
$SKETCHINC
 40
1.0
  9
$FILLETRAD
 40
0.0
  9
$AUNITS
 70
     0
  9
$AUPREC
 70
     0
  9
$MENU
  1
.
  9
$ELEVATION
 40
0.0
  9
$PELEVATION
 40
0.0
  9
$THICKNESS
 40
0.0
  9
$LIMCHECK
 70
     0
  9
$CHAMFERA
 40
0.0
  9
$CHAMFERB
 40
0.0
  9
$CHAMFERC
 40
0.0
  9
$CHAMFERD
 40
0.0
  9
$SKPOLY
 70
     0
  9
$TDCREATE
 40
2459287.114745371
  9
$TDUCREATE
 40
2459286.739745371
  9
$TDUPDATE
 40
2459459.410277778
  9
$TDUUPDATE
 40
2459459.035277778
  9
$TDINDWG
 40
0.0435879630
  9
$TDUSRTIMER
 40
0.0435879630
  9
$USRTIMER
 70
     1
  9
$ANGBASE
 50
0.0
  9
$ANGDIR
 70
     0
  9
$PDMODE
 70
     0
  9
$PDSIZE
 40
0.0
  9
$PLINEWID
 40
0.0
  9
$SPLFRAME
 70
     0
  9
$SPLINETYPE
 70
     6
  9
$SPLINESEGS
 70
     8
  9
$HANDSEED
  5
D5D
  9
$SURFTAB1
 70
     6
  9
$SURFTAB2
 70
     6
  9
$SURFTYPE
 70
     6
  9
$SURFU
 70
     6
  9
$SURFV
 70
     6
  9
$UCSBASE
  2

  9
$UCSNAME
  2

  9
$UCSORG
 10
0.0
 20
0.0
 30
0.0
  9
$UCSXDIR
 10
1.0
 20
0.0
 30
0.0
  9
$UCSYDIR
 10
0.0
 20
1.0
 30
0.0
  9
$UCSORTHOREF
  2

  9
$UCSORTHOVIEW
 70
     0
  9
$UCSORGTOP
 10
0.0
 20
0.0
 30
0.0
  9
$UCSORGBOTTOM
 10
0.0
 20
0.0
 30
0.0
  9
$UCSORGLEFT
 10
0.0
 20
0.0
 30
0.0
  9
$UCSORGRIGHT
 10
0.0
 20
0.0
 30
0.0
  9
$UCSORGFRONT
 10
0.0
 20
0.0
 30
0.0
  9
$UCSORGBACK
 10
0.0
 20
0.0
 30
0.0
  9
$PUCSBASE
  2

  9
$PUCSNAME
  2

  9
$PUCSORG
 10
0.0
 20
0.0
 30
0.0
  9
$PUCSXDIR
 10
1.0
 20
0.0
 30
0.0
  9
$PUCSYDIR
 10
0.0
 20
1.0
 30
0.0
  9
$PUCSORTHOREF
  2

  9
$PUCSORTHOVIEW
 70
     0
  9
$PUCSORGTOP
 10
0.0
 20
0.0
 30
0.0
  9
$PUCSORGBOTTOM
 10
0.0
 20
0.0
 30
0.0
  9
$PUCSORGLEFT
 10
0.0
 20
0.0
 30
0.0
  9
$PUCSORGRIGHT
 10
0.0
 20
0.0
 30
0.0
  9
$PUCSORGFRONT
 10
0.0
 20
0.0
 30
0.0
  9
$PUCSORGBACK
 10
0.0
 20
0.0
 30
0.0
  9
$USERI1
 70
     0
  9
$USERI2
 70
     0
  9
$USERI3
 70
     0
  9
$USERI4
 70
     0
  9
$USERI5
 70
     0
  9
$USERR1
 40
0.0
  9
$USERR2
 40
0.0
  9
$USERR3
 40
0.0
  9
$USERR4
 40
0.0
  9
$USERR5
 40
0.0
  9
$WORLDVIEW
 70
     1
  9
$SHADEDGE
 70
     3
  9
$SHADEDIF
 70
    70
  9
$TILEMODE
 70
     1
  9
$MAXACTVP
 70
    64
  9
$PINSBASE
 10
0.0
 20
0.0
 30
0.0
  9
$PLIMCHECK
 70
     0
  9
$PEXTMIN
 10
0.0
 20
0.0
 30
0.0
  9
$PEXTMAX
 10
0.0
 20
0.0
 30
0.0
  9
$PLIMMIN
 10
0.0
 20
0.0
  9
$PLIMMAX
 10
12.0
 20
9.0
  9
$UNITMODE
 70
     0
  9
$VISRETAIN
 70
     1
  9
$PLINEGEN
 70
     0
  9
$PSLTSCALE
 70
     1
  9
$TREEDEPTH
 70
  3020
  9
$CMLSTYLE
  2
Standard
  9
$CMLJUST
 70
     0
  9
$CMLSCALE
 40
20.0
  9
$PROXYGRAPHICS
 70
     1
  9
$MEASUREMENT
 70
     1
  9
$CELWEIGHT
370
    -1
  9
$ENDCAPS
280
     0
  9
$JOINSTYLE
280
     0
  9
$LWDISPLAY
290
     0
  9
$INSUNITS
 70
     4
  9
$HYPERLINKBASE
  1

  9
$STYLESHEET
  1

  9
$XEDIT
290
     1
  9
$CEPSNTYPE
380
     0
  9
$PSTYLEMODE
290
     1
  9
$FINGERPRINTGUID
  2
{542CF6D1-79DE-4745-9EAF-A93EE0B7329A}
  9
$VERSIONGUID
  2
{49DF7EC5-DAC6-534B-A19F-131583C9A0B6}
  9
$EXTNAMES
290
     1
  9
$PSVPSCALE
 40
0.0
  9
$OLESTARTUP
290
     0
  9
$SORTENTS
280
   127
  9
$INDEXCTL
280
     0
  9
$HIDETEXT
280
     1
  9
$XCLIPFRAME
280
     2
  9
$HALOGAP
280
     0
  9
$OBSCOLOR
 70
   257
  9
$OBSLTYPE
280
     0
  9
$INTERSECTIONDISPLAY
280
     0
  9
$INTERSECTIONCOLOR
 70
   257
  9
$DIMASSOC
280
     2
  9
$PROJECTNAME
  1

  9
$CAMERADISPLAY
290
     0
  9
$LENSLENGTH
 40
50.0
  9
$CAMERAHEIGHT
 40
0.0
  9
$STEPSPERSEC
 40
2.0
  9
$STEPSIZE
 40
6.0
  9
$3DDWFPREC
 40
2.0
  9
$PSOLWIDTH
 40
5.0
  9
$PSOLHEIGHT
 40
80.0
  9
$LOFTANG1
 40
1.570796326794896
  9
$LOFTANG2
 40
1.570796326794896
  9
$LOFTMAG1
 40
0.0
  9
$LOFTMAG2
 40
0.0
  9
$LOFTPARAM
 70
     7
  9
$LOFTNORMALS
280
     1
  9
$LATITUDE
 40
37.795
  9
$LONGITUDE
 40
-122.394
  9
$NORTHDIRECTION
 40
0.0
  9
$TIMEZONE
 70
 -8000
  9
$LIGHTGLYPHDISPLAY
280
     1
  9
$TILEMODELIGHTSYNCH
280
     1
  9
$CMATERIAL
347
EC
  9
$SOLIDHIST
280
     0
  9
$SHOWHIST
280
     1
  9
$DWFFRAME
280
     2
  9
$DGNFRAME
280
     0
  9
$REALWORLDSCALE
290
     1
  9
$INTERFERECOLOR
 62
     1
  9
$INTERFEREOBJVS
345
F9
  9
$INTERFEREVPVS
346
F6
  9
$CSHADOW
280
     0
  9
$SHADOWPLANELOCATION
 40
0.0
  0
ENDSEC
  0
SECTION
  2
CLASSES
  0
CLASS
  1
ACDBDICTIONARYWDFLT
  2
AcDbDictionaryWithDefault
  3
ObjectDBX Classes
 90
        0
 91
        1
280
     0
281
     0
  0
CLASS
  1
DICTIONARYVAR
  2
AcDbDictionaryVar
  3
ObjectDBX Classes
 90
        0
 91
       13
280
     0
281
     0
  0
CLASS
  1
TABLESTYLE
  2
AcDbTableStyle
  3
ObjectDBX Classes
 90
     4095
 91
        1
280
     0
281
     0
  0
CLASS
  1
MATERIAL
  2
AcDbMaterial
  3
ObjectDBX Classes
 90
     1153
 91
        3
280
     0
281
     0
  0
CLASS
  1
VISUALSTYLE
  2
AcDbVisualStyle
  3
ObjectDBX Classes
 90
     4095
 91
       24
280
     0
281
     0
  0
CLASS
  1
SCALE
  2
AcDbScale
  3
ObjectDBX Classes
 90
     1153
 91
       17
280
     0
281
     0
  0
CLASS
  1
MLEADERSTYLE
  2
AcDbMLeaderStyle
  3
ACDB_MLEADERSTYLE_CLASS
 90
     4095
 91
        2
280
     0
281
     0
  0
CLASS
  1
CELLSTYLEMAP
  2
AcDbCellStyleMap
  3
ObjectDBX Classes
 90
     1152
 91
        1
280
     0
281
     0
  0
CLASS
  1
EXACXREFPANELOBJECT
  2
ExAcXREFPanelObject
  3
EXAC_ESW
 90
     1025
 91
        0
280
     0
281
     0
  0
CLASS
  1
NPOCOLLECTION
  2
AcDbImpNonPersistentObjectsCollection
  3
ObjectDBX Classes
 90
     1153
 91
        0
280
     0
281
     0
  0
CLASS
  1
LAYER_INDEX
  2
AcDbLayerIndex
  3
ObjectDBX Classes
 90
        0
 91
        0
280
     0
281
     0
  0
CLASS
  1
SPATIAL_INDEX
  2
AcDbSpatialIndex
  3
ObjectDBX Classes
 90
        0
 91
        0
280
     0
281
     0
  0
CLASS
  1
IDBUFFER
  2
AcDbIdBuffer
  3
ObjectDBX Classes
 90
        0
 91
        0
280
     0
281
     0
  0
CLASS
  1
ACDBSECTIONVIEWSTYLE
  2
AcDbSectionViewStyle
  3
ObjectDBX Classes
 90
     1025
 91
        1
280
     0
281
     0
  0
CLASS
  1
ACDBDETAILVIEWSTYLE
  2
AcDbDetailViewStyle
  3
ObjectDBX Classes
 90
     1025
 91
        1
280
     0
281
     0
  0
CLASS
  1
SORTENTSTABLE
  2
AcDbSortentsTable
  3
ObjectDBX Classes
 90
        0
 91
        1
280
     0
281
     0
  0
CLASS
  1
MULTILEADER
  2
AcDbMLeader
  3
ACDB_MLEADER_CLASS
 90
     1025
 91
        7
280
     0
281
     1
  0
CLASS
  1
PLOTSETTINGS
  2
AcDbPlotSettings
  3
ObjectDBX Classes
 90
        0
 91
        1
280
     0
281
     0
  0
ENDSEC
  0
SECTION
  2
TABLES
  0
TABLE
  2
VPORT
  5
8
330
0
100
AcDbSymbolTable
 70
     1
  0
VPORT
  5
EA
330
8
100
AcDbSymbolTableRecord
100
AcDbViewportTableRecord
  2
*Active
 70
     0
 10
0.0
 20
0.0
 11
1.0
 21
1.0
 12
577.1115344077156
 22
452.2678708377527
 13
0.0
 23
0.0
 14
10.0
 24
10.0
 15
10.0
 25
10.0
 16
0.0
 26
0.0
 36
1.0
 17
0.0
 27
0.0
 37
0.0
 40
310.5726781582853
 41
2.03648802736602
 42
50.0
 43
0.0
 44
0.0
 50
0.0
 51
0.0
 71
     0
 72
  1000
 73
     1
 74
     3
 75
     0
 76
     1
 77
     0
 78
     0
281
     0
 65
     1
110
0.0
120
0.0
130
0.0
111
1.0
121
0.0
131
0.0
112
0.0
122
1.0
132
0.0
 79
     0
146
0.0
348
F5
 60
     3
 61
     5
292
     1
282
     1
141
0.0
142
0.0
 63
   250
421
  3355443
1001
ACAD_NAV_VCDISPLAY
1070
     3
  0
ENDTAB
  0
TABLE
  2
LTYPE
  5
5
330
0
100
AcDbSymbolTable
 70
     3
  0
LTYPE
  5
14
330
5
100
AcDbSymbolTableRecord
100
AcDbLinetypeTableRecord
  2
ByBlock
 70
     0
  3

 72
    65
 73
     0
 40
0.0
  0
LTYPE
  5
15
330
5
100
AcDbSymbolTableRecord
100
AcDbLinetypeTableRecord
  2
ByLayer
 70
     0
  3

 72
    65
 73
     0
 40
0.0
  0
LTYPE
  5
16
330
5
100
AcDbSymbolTableRecord
100
AcDbLinetypeTableRecord
  2
Continuous
 70
     0
  3
Solid line
 72
    65
 73
     0
 40
0.0
  0
LTYPE
  5
A44
330
5
100
AcDbSymbolTableRecord
100
AcDbLinetypeTableRecord
  2
HIDDEN2
 70
     0
  3
Hidden (.5x) _ _ _ _ _ _ _ _ _ _ _ _ _ _ _ _ _
 72
    65
 73
     2
 40
4.762499999999999
 49
3.174999999999999
 74
     0
 49
-1.587499999999999
 74
     0
  0
LTYPE
  5
A45
330
5
100
AcDbSymbolTableRecord
100
AcDbLinetypeTableRecord
  2
HIDDEN
 70
     0
  3
Hidden __ __ __ __ __ __ __ __ __ __ __ __ __ _
 72
    65
 73
     2
 40
9.524999999999998
 49
6.349999999999999
 74
     0
 49
-3.174999999999999
 74
     0
  0
ENDTAB
  0
TABLE
  2
LAYER
  5
2
102
{ACAD_XDICTIONARY
360
1FF
102
}
330
0
100
AcDbSymbolTable
 70
     7
  0
LAYER
  5
10
102
{ACAD_XDICTIONARY
360
13C
102
}
330
2
100
AcDbSymbolTableRecord
100
AcDbLayerTableRecord
  2
0
 70
     0
 62
     7
  6
Continuous
370
    -3
390
F
347
EE
348
0
  0
LAYER
  5
28D
102
{ACAD_XDICTIONARY
360
28E
102
}
330
2
100
AcDbSymbolTableRecord
100
AcDbLayerTableRecord
  2
図面枠
 70
     0
 62
     7
  6
Continuous
370
    -3
390
F
347
EE
348
0
  0
LAYER
  5
28F
330
2
100
AcDbSymbolTableRecord
100
AcDbLayerTableRecord
  2
防火材
 70
     0
 62
     7
  6
Continuous
370
    -3
390
F
347
EE
348
0
1001
AcAecLayerStandard
1000

1000

1001
AcCmTransparency
1071
        0
  0
LAYER
  5
290
330
2
100
AcDbSymbolTableRecord
100
AcDbLayerTableRecord
  2
文字
 70
     0
 62
     7
  6
Continuous
370
    -3
390
F
347
EE
348
0
1001
AcAecLayerStandard
1000

1000

1001
AcCmTransparency
1071
        0
  0
LAYER
  5
627
330
2
100
AcDbSymbolTableRecord
100
AcDbLayerTableRecord
  2
寸法
 70
     0
 62
     7
  6
Continuous
370
    -3
390
F
347
EE
348
0
1001
AcAecLayerStandard
1000

1000

1001
AcCmTransparency
1071
        0
  0
LAYER
  5
628
330
2
100
AcDbSymbolTableRecord
100
AcDbLayerTableRecord
  2
Defpoints
 70
     0
 62
     7
  6
Continuous
290
     0
370
    -3
390
F
347
EE
348
0
  0
LAYER
  5
629
330
2
100
AcDbSymbolTableRecord
100
AcDbLayerTableRecord
  2
躯体・通線物他
 70
     0
 62
     7
  6
Continuous
370
    -3
390
F
347
EE
348
0
1001
AcAecLayerStandard
1000

1000

1001
AcCmTransparency
1071
        0
  0
ENDTAB
  0
TABLE
  2
STYLE
  5
3
330
0
100
AcDbSymbolTable
 70
     3
  0
STYLE
  5
11
330
3
100
AcDbSymbolTableRecord
100
AcDbTextStyleTableRecord
  2
Standard
 70
     0
 40
0.0
 41
1.0
 50
0.0
 71
     0
 42
2.5
  3
arial.ttf
  4

1001
ACAD
1000
Arial
1071
       34
  0
STYLE
  5
132
330
3
100
AcDbSymbolTableRecord
100
AcDbTextStyleTableRecord
  2
Annotative
 70
     0
 40
0.0
 41
1.0
 50
0.0
 71
     0
 42
2.5
  3
arial.ttf
  4

1001
AcadAnnotative
1000
AnnotativeData
1002
{
1070
     1
1070
     1
1002
}
1001
ACAD
1000
Arial
1071
       34
  0
STYLE
  5
A43
330
3
100
AcDbSymbolTableRecord
100
AcDbTextStyleTableRecord
  2

 70
     1
 40
0.0
 41
1.0
 50
0.0
 71
     0
 42
2.5
  3
ltypeshp.shx
  4

  0
ENDTAB
  0
TABLE
  2
VIEW
  5
6
330
0
100
AcDbSymbolTable
 70
     0
  0
ENDTAB
  0
TABLE
  2
UCS
  5
7
330
0
100
AcDbSymbolTable
 70
     0
  0
ENDTAB
  0
TABLE
  2
APPID
  5
9
330
0
100
AcDbSymbolTable
 70
    14
  0
APPID
  5
12
330
9
100
AcDbSymbolTableRecord
100
AcDbRegAppTableRecord
  2
ACAD
 70
     0
  0
APPID
  5
9E
330
9
100
AcDbSymbolTableRecord
100
AcDbRegAppTableRecord
  2
ACAD_PSEXT
 70
     0
  0
APPID
  5
133
330
9
100
AcDbSymbolTableRecord
100
AcDbRegAppTableRecord
  2
AcadAnnoPO
 70
     0
  0
APPID
  5
134
330
9
100
AcDbSymbolTableRecord
100
AcDbRegAppTableRecord
  2
AcadAnnotative
 70
     0
  0
APPID
  5
135
330
9
100
AcDbSymbolTableRecord
100
AcDbRegAppTableRecord
  2
ACAD_DSTYLE_DIMJAG
 70
     0
  0
APPID
  5
136
330
9
100
AcDbSymbolTableRecord
100
AcDbRegAppTableRecord
  2
ACAD_DSTYLE_DIMTALN
 70
     0
  0
APPID
  5
165
330
9
100
AcDbSymbolTableRecord
100
AcDbRegAppTableRecord
  2
ACAD_MLEADERVER
 70
     0
  0
APPID
  5
217
330
9
100
AcDbSymbolTableRecord
100
AcDbRegAppTableRecord
  2
ACAD_NAV_VCDISPLAY
 70
     0
  0
APPID
  5
291
330
9
100
AcDbSymbolTableRecord
100
AcDbRegAppTableRecord
  2
AcAecLayerStandard
 70
     0
  0
APPID
  5
292
330
9
100
AcDbSymbolTableRecord
100
AcDbRegAppTableRecord
  2
AcCmTransparency
 70
     0
  0
APPID
  5
293
330
9
100
AcDbSymbolTableRecord
100
AcDbRegAppTableRecord
  2
GradientColor1ACI
 70
     0
  0
APPID
  5
294
330
9
100
AcDbSymbolTableRecord
100
AcDbRegAppTableRecord
  2
GradientColor2ACI
 70
     0
  0
APPID
  5
914
330
9
100
AcDbSymbolTableRecord
100
AcDbRegAppTableRecord
  2
AcadAnnoMonitorAlertIconDisabled
 70
     0
  0
APPID
  5
915
330
9
100
AcDbSymbolTableRecord
100
AcDbRegAppTableRecord
  2
ACAD_EXEMPT_FROM_CAD_STANDARDS
 70
     0
  0
ENDTAB
  0
TABLE
  2
DIMSTYLE
  5
A
330
0
100
AcDbSymbolTable
 70
     3
100
AcDbDimStyleTable
 71
     2
340
27
340
137
  0
DIMSTYLE
105
1B0
102
{ACAD_REACTORS
330
8AC
330
8B0
330
AF6
102
}
330
A
100
AcDbSymbolTableRecord
100
AcDbDimStyleTableRecord
  2
Standard
 70
     0
340
11
  0
DIMSTYLE
105
137
330
A
100
AcDbSymbolTableRecord
100
AcDbDimStyleTableRecord
  2
Annotative
 70
     0
 40
0.0
 41
2.5
 42
0.625
 43
3.75
 44
1.25
 73
     0
 74
     0
 77
     1
 78
     8
140
2.5
141
2.5
143
0.03937007874016
147
0.625
171
     3
172
     1
271
     2
272
     2
274
     3
278
    44
283
     0
284
     8
340
11
1001
AcadAnnotative
1000
AnnotativeData
1002
{
1070
     1
1070
     1
1002
}
1001
ACAD_DSTYLE_DIMJAG
1070
   388
1040
1.5
1001
ACAD_DSTYLE_DIMTALN
1070
   392
1070
     0
  0
DIMSTYLE
105
27
330
A
100
AcDbSymbolTableRecord
100
AcDbDimStyleTableRecord
  2
ISO-25
 70
     0
 41
2.5
 42
0.625
 43
3.75
 44
1.25
 73
     0
 74
     0
 77
     1
 78
     8
140
2.5
141
2.5
143
0.03937007874016
147
0.625
171
     3
172
     1
271
     2
272
     2
274
     3
278
    44
283
     0
284
     8
340
11
  0
ENDTAB
  0
TABLE
  2
BLOCK_RECORD
  5
1
330
0
100
AcDbSymbolTable
 70
     4
  0
BLOCK_RECORD
  5
1F
102
{ACAD_XDICTIONARY
360
1CE
102
}
330
1
100
AcDbSymbolTableRecord
100
AcDbBlockTableRecord
  2
*Model_Space
340
22
 70
     0
280
     1
281
     0
  0
BLOCK_RECORD
  5
D2
330
1
100
AcDbSymbolTableRecord
100
AcDbBlockTableRecord
  2
*Paper_Space
340
D3
 70
     0
280
     1
281
     0
  0
BLOCK_RECORD
  5
D6
330
1
100
AcDbSymbolTableRecord
100
AcDbBlockTableRecord
  2
*Paper_Space0
340
D7
 70
     0
280
     1
281
     0
  0
BLOCK_RECORD
  5
8BA
330
1
100
AcDbSymbolTableRecord
100
AcDbBlockTableRecord
  2
*D1
340
0
 70
     0
280
     1
281
     0
  0
BLOCK_RECORD
  5
8C6
330
1
100
AcDbSymbolTableRecord
100
AcDbBlockTableRecord
  2
*D2
340
0
 70
     0
280
     1
281
     0
  0
BLOCK_RECORD
  5
B13
330
1
100
AcDbSymbolTableRecord
100
AcDbBlockTableRecord
  2
*D3
340
0
 70
     0
280
     1
281
     0
  0
ENDTAB
  0
ENDSEC
  0
SECTION
  2
BLOCKS
  0
BLOCK
  5
20
330
1F
100
AcDbEntity
  8
0
100
AcDbBlockBegin
  2
*Model_Space
 70
     0
 10
0.0
 20
0.0
 30
0.0
  3
*Model_Space
  1

  0
ENDBLK
  5
21
330
1F
100
AcDbEntity
  8
0
100
AcDbBlockEnd
  0
BLOCK
  5
D4
330
D2
100
AcDbEntity
 67
     1
  8
0
100
AcDbBlockBegin
  2
*Paper_Space
 70
     0
 10
0.0
 20
0.0
 30
0.0
  3
*Paper_Space
  1

  0
ENDBLK
  5
D5
330
D2
100
AcDbEntity
 67
     1
  8
0
100
AcDbBlockEnd
  0
BLOCK
  5
D8
330
D6
100
AcDbEntity
 67
     1
  8
0
100
AcDbBlockBegin
  2
*Paper_Space0
 70
     0
 10
0.0
 20
0.0
 30
0.0
  3
*Paper_Space0
  1

  0
ENDBLK
  5
D9
330
D6
100
AcDbEntity
 67
     1
  8
0
100
AcDbBlockEnd
  0
BLOCK
  5
8BB
330
8BA
100
AcDbEntity
  8
0
100
AcDbBlockBegin
  2
*D1
 70
     1
 10
0.0
 20
0.0
 30
0.0
  3
*D1
  1

  0
LINE
  5
D22
330
8BA
100
AcDbEntity
  8
寸法
  6
Continuous
 62
     0
440
 16777216
370
    -2
100
AcDbLine
 10
510.3806099097714
 20
455.5778606269866
 30
0.0
 11
510.3806099097714
 21
447.5614724879746
 31
0.0
  0
LINE
  5
D23
330
8BA
100
AcDbEntity
  8
寸法
  6
Continuous
 62
     0
440
 16777216
370
    -2
100
AcDbLine
 10
538.8133489238499
 20
454.9098921691451
 30
0.0
 11
538.8133489238499
 21
447.5614724879746
 31
0.0
  0
LINE
  5
D24
330
8BA
100
AcDbEntity
  8
寸法
  6
Continuous
 62
     0
440
 16777216
370
    -2
100
AcDbLine
 10
512.3806099097715
 20
447.7414724879746
 30
0.0
 11
536.8133489238499
 21
447.7414724879746
 31
0.0
  0
MTEXT
  5
D25
330
8BA
100
AcDbEntity
  8
寸法
  6
Continuous
 62
     0
440
 16777216
100
AcDbMText
 10
524.5969794168106
 20
442.9248283757288
 30
0.0
 40
3.0
 41
0.0
 46
0.0
 71
     5
 72
     1
  1
\A1;{\fMS PGothic|b0|i0|c128|p50;開口Φ１６０以下}
 73
     1
 44
1.0
  0
SOLID
  5
D26
330
8BA
100
AcDbEntity
  8
寸法
  6
Continuous
 62
     0
440
 16777216
100
AcDbTrace
 10
512.3806099097715
 20
448.0748058213079
 30
0.0
 11
512.3806099097715
 21
447.4081391546413
 31
0.0
 12
510.3806099097714
 22
447.7414724879746
 32
0.0
 13
510.3806099097714
 23
447.7414724879746
 33
0.0
  0
SOLID
  5
D27
330
8BA
100
AcDbEntity
  8
寸法
  6
Continuous
 62
     0
440
 16777216
100
AcDbTrace
 10
536.8133489238499
 20
448.0748058213079
 30
0.0
 11
536.8133489238499
 21
447.4081391546413
 31
0.0
 12
538.8133489238499
 22
447.7414724879746
 32
0.0
 13
538.8133489238499
 23
447.7414724879746
 33
0.0
  0
POINT
  5
D28
330
8BA
100
AcDbEntity
  8
Defpoints
  6
Continuous
 62
     0
440
 16777216
100
AcDbPoint
 10
510.3806099097714
 20
455.6403606269865
 30
0.0
  0
POINT
  5
D29
330
8BA
100
AcDbEntity
  8
Defpoints
  6
Continuous
 62
     0
440
 16777216
100
AcDbPoint
 10
538.8133489238499
 20
454.9723921691452
 30
0.0
  0
POINT
  5
D2A
330
8BA
100
AcDbEntity
  8
Defpoints
  6
Continuous
 62
     0
440
 16777216
100
AcDbPoint
 10
538.8133489238499
 20
447.7414724879746
 30
0.0
  0
ENDBLK
  5
8BC
330
8BA
100
AcDbEntity
  8
0
100
AcDbBlockEnd
  0
BLOCK
  5
8C7
330
8C6
100
AcDbEntity
  8
0
100
AcDbBlockBegin
  2
*D2
 70
     1
 10
0.0
 20
0.0
 30
0.0
  3
*D2
  1

  0
LINE
  5
CDA
330
8C6
100
AcDbEntity
  8
寸法
  6
Continuous
 62
     0
440
 16777216
370
    -2
100
AcDbLine
 10
564.3225746880625
 20
496.056364908234
 30
0.0
 11
569.0413603401935
 21
496.056364908234
 31
0.0
  0
LINE
  5
CDB
330
8C6
100
AcDbEntity
  8
寸法
  6
Continuous
 62
     0
440
 16777216
370
    -2
100
AcDbLine
 10
564.3225746880625
 20
480.4133845861485
 30
0.0
 11
569.0413603401935
 21
480.4133845861485
 31
0.0
  0
LINE
  5
CDC
330
8C6
100
AcDbEntity
  8
寸法
  6
Continuous
 62
     0
440
 16777216
370
    -2
100
AcDbLine
 10
568.8613603401936
 20
494.0563649082339
 30
0.0
 11
568.8613603401936
 21
482.4133845861486
 31
0.0
  0
MTEXT
  5
CDD
330
8C6
100
AcDbEntity
  8
寸法
  6
Continuous
 62
     0
440
 16777216
100
AcDbMText
 10
575.4222975299191
 20
488.2348747471907
 30
0.0
 40
3.0
 41
0.0
 46
0.0
 71
     5
 72
     1
  1
\A1;{\fMS PGothic|b0|i0|c128|p50;ＲＣ７５以上\PＡＬＣ１００以上}
 11
0.0000000000000001
 21
1.0
 31
0.0
 73
     1
 44
1.0
  0
SOLID
  5
CDE
330
8C6
100
AcDbEntity
  8
寸法
  6
Continuous
 62
     0
440
 16777216
100
AcDbTrace
 10
568.5280270068602
 20
494.0563649082339
 30
0.0
 11
569.194693673527
 21
494.0563649082339
 31
0.0
 12
568.8613603401936
 22
496.056364908234
 32
0.0
 13
568.8613603401936
 23
496.056364908234
 33
0.0
  0
SOLID
  5
CDF
330
8C6
100
AcDbEntity
  8
寸法
  6
Continuous
 62
     0
440
 16777216
100
AcDbTrace
 10
568.5280270068602
 20
482.4133845861486
 30
0.0
 11
569.194693673527
 21
482.4133845861486
 31
0.0
 12
568.8613603401936
 22
480.4133845861485
 32
0.0
 13
568.8613603401936
 23
480.4133845861485
 33
0.0
  0
POINT
  5
CE0
330
8C6
100
AcDbEntity
  8
Defpoints
  6
Continuous
 62
     0
440
 16777216
100
AcDbPoint
 10
564.3225746880625
 20
496.056364908234
 30
0.0
  0
POINT
  5
CE1
330
8C6
100
AcDbEntity
  8
Defpoints
  6
Continuous
 62
     0
440
 16777216
100
AcDbPoint
 10
564.3225746880625
 20
480.4133845861485
 30
0.0
  0
POINT
  5
CE2
330
8C6
100
AcDbEntity
  8
Defpoints
  6
Continuous
 62
     0
440
 16777216
100
AcDbPoint
 10
568.8613603401936
 20
480.4133845861485
 30
0.0
  0
ENDBLK
  5
8C8
330
8C6
100
AcDbEntity
  8
0
100
AcDbBlockEnd
  0
BLOCK
  5
B14
330
B13
100
AcDbEntity
  8
0
100
AcDbBlockBegin
  2
*D3
 70
     1
 10
0.0
 20
0.0
 30
0.0
  3
*D3
  1

  0
LINE
  5
D10
330
B13
100
AcDbEntity
  8
寸法
  6
Continuous
 62
     0
440
 16777216
370
    -2
100
AcDbLine
 10
664.6252502404183
 20
496.056364908234
 30
0.0
 11
668.7786397284546
 21
496.056364908234
 31
0.0
  0
LINE
  5
D11
330
B13
100
AcDbEntity
  8
寸法
  6
Continuous
 62
     0
440
 16777216
370
    -2
100
AcDbLine
 10
664.6252502404183
 20
480.4133845861485
 30
0.0
 11
668.7786397284546
 21
480.4133845861485
 31
0.0
  0
LINE
  5
D12
330
B13
100
AcDbEntity
  8
寸法
  6
Continuous
 62
     0
440
 16777216
370
    -2
100
AcDbLine
 10
668.5986397284547
 20
494.0563649082339
 30
0.0
 11
668.5986397284547
 21
482.4133845861486
 31
0.0
  0
MTEXT
  5
D13
330
B13
100
AcDbEntity
  8
寸法
  6
Continuous
 62
     0
440
 16777216
100
AcDbMText
 10
675.440962803041
 20
488.2348747471907
 30
0.0
 40
3.0
 41
0.0
 46
0.0
 71
     5
 72
     1
  1
\A1;{\fMS PGothic|b0|i0|c128|p50;ＲＣ７５以上\PＡＬＣ１００以上}
 11
0.0000000000000001
 21
1.0
 31
0.0
 73
     1
 44
1.0
  0
SOLID
  5
D14
330
B13
100
AcDbEntity
  8
寸法
  6
Continuous
 62
     0
440
 16777216
100
AcDbTrace
 10
668.2653063951213
 20
494.0563649082339
 30
0.0
 11
668.9319730617881
 21
494.0563649082339
 31
0.0
 12
668.5986397284547
 22
496.056364908234
 32
0.0
 13
668.5986397284547
 23
496.056364908234
 33
0.0
  0
SOLID
  5
D15
330
B13
100
AcDbEntity
  8
寸法
  6
Continuous
 62
     0
440
 16777216
100
AcDbTrace
 10
668.2653063951213
 20
482.4133845861486
 30
0.0
 11
668.9319730617881
 21
482.4133845861486
 31
0.0
 12
668.5986397284547
 22
480.4133845861485
 32
0.0
 13
668.5986397284547
 23
480.4133845861485
 33
0.0
  0
POINT
  5
D16
330
B13
100
AcDbEntity
  8
Defpoints
  6
Continuous
 62
     0
440
 16777216
100
AcDbPoint
 10
664.6252502404183
 20
496.056364908234
 30
0.0
  0
POINT
  5
D17
330
B13
100
AcDbEntity
  8
Defpoints
  6
Continuous
 62
     0
440
 16777216
100
AcDbPoint
 10
664.6252502404183
 20
480.4133845861485
 30
0.0
  0
POINT
  5
D18
330
B13
100
AcDbEntity
  8
Defpoints
  6
Continuous
 62
     0
440
 16777216
100
AcDbPoint
 10
668.5986397284547
 20
480.4133845861485
 30
0.0
  0
ENDBLK
  5
B15
330
B13
100
AcDbEntity
  8
0
100
AcDbBlockEnd
  0
ENDSEC
  0
SECTION
  2
ENTITIES
  0
LINE
  5
450
330
1F
100
AcDbEntity
  8
図面枠
370
    13
100
AcDbLine
 10
682.0986167291476
 20
590.4487479640819
 30
0.0
 11
682.0986167291476
 21
293.448747964082
 31
0.0
  0
LINE
  5
451
330
1F
100
AcDbEntity
  8
図面枠
370
    13
100
AcDbLine
 10
472.0986167291475
 20
293.448747964082
 30
0.0
 11
682.0986167291476
 21
293.448747964082
 31
0.0
  0
LINE
  5
452
330
1F
100
AcDbEntity
  8
図面枠
370
    13
100
AcDbLine
 10
472.0986167291475
 20
590.4487479640819
 30
0.0
 11
472.0986167291475
 21
293.448747964082
 31
0.0
  0
LINE
  5
453
330
1F
100
AcDbEntity
  8
図面枠
370
    13
100
AcDbLine
 10
682.0986167291476
 20
590.4487479640819
 30
0.0
 11
472.0986167291475
 21
590.4487479640819
 31
0.0
  0
LINE
  5
454
330
1F
100
AcDbEntity
  8
図面枠
370
    13
100
AcDbLine
 10
682.0986167291476
 20
579.0507394382879
 30
0.0
 11
472.0986167291475
 21
579.0507394382879
 31
0.0
  0
LINE
  5
455
330
1F
100
AcDbEntity
  8
図面枠
370
    13
100
AcDbLine
 10
493.1680232965423
 20
590.4487479640819
 30
0.0
 11
493.1680232965423
 21
579.0507394382879
 31
0.0
  0
MTEXT
  5
457
330
1F
100
AcDbEntity
  8
文字
  6
Continuous
370
    13
100
AcDbMText
 10
482.0078076977936
 20
585.9297350433975
 30
0.0
 40
3.0
 41
4.178825393072102
 46
0.0
 71
     1
 72
     5
  1
１
 73
     1
 44
0.75
101
Embedded Object
 70
     1
 10
1.0
 20
0.0
 30
0.0
 11
482.0078076977936
 21
585.9297350433975
 31
0.0
 40
4.178825393072102
 41
0.0
 42
1.244318181818181
 43
3.0
 71
     2
 72
     1
 44
4.178825393072102
 45
0.8849620939533352
 73
     0
 74
     0
 46
4.724757535192768
  0
MTEXT
  5
458
330
1F
100
AcDbEntity
  8
文字
  6
Continuous
370
    13
100
AcDbMText
 10
657.9447673868678
 20
576.1313240739496
 30
0.0
 40
3.0
 41
21.16849155225112
 46
0.0
 71
     1
 72
     5
  1
単位：ｍｍ
 73
     1
 44
0.75
101
Embedded Object
 70
     1
 10
1.0
 20
0.0
 30
0.0
 11
657.9447673868678
 21
576.1313240739496
 31
0.0
 40
21.16849155225112
 41
0.0
 42
18.51136363636364
 43
3.886363636363636
 71
     2
 72
     1
 44
21.16849155225112
 45
0.8849620939533352
 73
     0
 74
     0
 46
10.53238702043993
  0
LINE
  5
459
330
1F
100
AcDbEntity
  8
図面枠
  6
Continuous
370
    13
100
AcDbLine
 10
481.4641737924785
 20
412.0713215417429
 30
0.0
 11
672.7330596658166
 21
412.0713215417429
 31
0.0
  0
LINE
  5
45A
330
1F
100
AcDbEntity
  8
図面枠
  6
Continuous
370
    13
100
AcDbLine
 10
481.4641737924785
 20
412.0713215417429
 30
0.0
 11
481.4641737924785
 21
298.4142544971891
 31
0.0
  0
LINE
  5
45B
330
1F
100
AcDbEntity
  8
図面枠
  6
Continuous
370
    13
100
AcDbLine
 10
672.7330596658166
 20
406.7615489780228
 30
0.0
 11
481.4641737924785
 21
406.7615489780228
 31
0.0
  0
LINE
  5
45C
330
1F
100
AcDbEntity
  8
図面枠
  6
Continuous
370
    13
100
AcDbLine
 10
672.7330596658166
 20
401.4517764143027
 30
0.0
 11
481.4641737924785
 21
401.4517764143027
 31
0.0
  0
LINE
  5
45D
330
1F
100
AcDbEntity
  8
図面枠
  6
Continuous
370
    13
100
AcDbLine
 10
672.7330596658166
 20
380.2126861594225
 30
0.0
 11
481.4641737924785
 21
380.2126861594225
 31
0.0
  0
LINE
  5
45E
330
1F
100
AcDbEntity
  8
図面枠
  6
Continuous
370
    13
100
AcDbLine
 10
672.7330596658166
 20
369.5931410319824
 30
0.0
 11
481.4641737924785
 21
369.5931410319824
 31
0.0
  0
LINE
  5
460
330
1F
100
AcDbEntity
  8
図面枠
  6
Continuous
370
    13
100
AcDbLine
 10
672.7330596658166
 20
358.9735959045421
 30
0.0
 11
481.4641737924785
 21
358.9735959045421
 31
0.0
  0
LINE
  5
461
330
1F
100
AcDbEntity
  8
図面枠
  6
Continuous
370
    13
100
AcDbLine
 10
672.7330596658166
 20
298.4142544971891
 30
0.0
 11
481.4641737924785
 21
298.4142544971891
 31
0.0
  0
MTEXT
  5
462
330
1F
100
AcDbEntity
  8
文字
  6
Continuous
370
    13
100
AcDbMText
 10
486.6300616084794
 20
405.165457255453
 30
0.0
 40
2.0
 41
30.73155332927162
 46
0.0
 71
     1
 72
     5
  1
国土交通大臣認定番号
 73
     1
 44
0.75
101
Embedded Object
 70
     1
 10
1.0
 20
0.0
 30
0.0
 11
486.6300616084794
 21
405.165457255453
 31
0.0
 40
30.73155332927162
 41
0.0
 42
28.64772727272728
 43
2.625
 71
     2
 72
     1
 44
30.73155332927162
 45
0.8849620939533352
 73
     0
 74
     0
 46
2.580461047574065
  0
MTEXT
  5
463
330
1F
100
AcDbEntity
  8
文字
  6
Continuous
370
    13
100
AcDbMText
 10
486.6300616084794
 20
399.855684691733
 30
0.0
 40
2.0
 41
30.73155332927162
 46
0.0
 71
     1
 72
     5
  1
{\fMS PGothic|b0|i0|c128|p50;貫通する床の構造等}
 73
     1
 44
0.75
101
Embedded Object
 70
     1
 10
1.0
 20
0.0
 30
0.0
 11
486.6300616084794
 21
399.855684691733
 31
0.0
 40
30.73155332927162
 41
0.0
 42
25.26136363636364
 43
2.659090909090909
 71
     2
 72
     1
 44
30.73155332927162
 45
0.8849620939533352
 73
     0
 74
     0
 46
2.580461047574065
  0
MTEXT
  5
464
330
1F
100
AcDbEntity
  8
文字
  6
Continuous
370
    13
100
AcDbMText
 10
486.6300616084794
 20
378.6165944368527
 30
0.0
 40
2.0
 41
30.73155332927162
 46
0.0
 71
     1
 72
     5
  1
占積率
 73
     1
 44
0.75
101
Embedded Object
 70
     1
 10
1.0
 20
0.0
 30
0.0
 11
486.6300616084794
 21
378.6165944368527
 31
0.0
 40
30.73155332927162
 41
0.0
 42
8.090909090909091
 43
2.647727272727272
 71
     2
 72
     1
 44
30.73155332927162
 45
0.8849620939533352
 73
     0
 74
     0
 46
2.580461047574065
  0
MTEXT
  5
465
330
1F
100
AcDbEntity
  8
文字
  6
Continuous
370
    13
100
AcDbMText
 10
486.6300616084794
 20
367.9970493094126
 30
0.0
 40
2.0
 41
30.73155332927162
 46
0.0
 71
     1
 72
     5
  1
貫通物
 73
     1
 44
0.75
101
Embedded Object
 70
     1
 10
1.0
 20
0.0
 30
0.0
 11
486.6300616084794
 21
367.9970493094126
 31
0.0
 40
30.73155332927162
 41
0.0
 42
8.295454545454544
 43
2.636363636363636
 71
     2
 72
     1
 44
30.73155332927162
 45
0.8849620939533352
 73
     0
 74
     0
 46
2.580461047574065
  0
LINE
  5
467
330
1F
100
AcDbEntity
  8
図面枠
  6
Continuous
370
    13
100
AcDbLine
 10
514.117936302452
 20
369.5931410319824
 30
0.0
 11
514.117936302452
 21
358.9735959045422
 31
0.0
  0
MTEXT
  5
468
330
1F
100
AcDbEntity
  8
文字
  6
Continuous
370
    13
100
AcDbMText
 10
519.2838241184529
 20
362.6872767456926
 30
0.0
 40
2.0
 41
81.62851816377214
 46
0.0
 71
     1
 72
     5
  1
{\fMS PGothic|b0|i0|c128|p50;管内挿通線　電線・ケーブル（１本あたりの導体断面積）}
 73
     1
 44
0.75
101
Embedded Object
 70
     1
 10
1.0
 20
0.0
 30
0.0
 11
519.2838241184529
 21
362.6872767456926
 31
0.0
 40
81.62851816377214
 41
0.0
 42
66.84090909090909
 43
2.761363636363636
 71
     2
 72
     1
 44
81.62851816377214
 45
0.8849620939533352
 73
     0
 74
     0
 46
2.569124224878326
  0
LINE
  5
46A
330
1F
100
AcDbEntity
  8
図面枠
  6
Continuous
370
    13
100
AcDbLine
 10
592.1385873541648
 20
412.0713215417429
 30
0.0
 11
592.1385873541648
 21
353.663823340822
 31
0.0
  0
LINE
  5
46B
330
1F
100
AcDbEntity
  8
図面枠
  6
Continuous
370
    13
100
AcDbLine
 10
603.3765900414755
 20
412.0713215417429
 30
0.0
 11
481.4641737924785
 21
412.0713215417429
 31
0.0
  0
MTEXT
  5
46C
330
1F
100
AcDbEntity
  8
文字
  6
Continuous
370
    13
100
AcDbMText
 10
538.3532370222768
 20
410.4336280231708
 30
0.0
 40
2.0
 41
30.73155332927162
 46
0.0
 71
     1
 72
     5
  1
項目
 73
     1
 44
0.75
101
Embedded Object
 70
     1
 10
1.0
 20
0.0
 30
0.0
 11
538.3532370222768
 21
410.4336280231708
 31
0.0
 40
30.73155332927162
 41
0.0
 42
5.056818181818181
 43
2.522727272727272
 71
     2
 72
     1
 44
30.73155332927162
 45
0.8849620939533352
 73
     0
 74
     0
 46
2.580461047574065
  0
MTEXT
  5
46D
330
1F
100
AcDbEntity
  8
文字
  6
Continuous
370
    13
100
AcDbMText
 10
597.3044751701658
 20
405.165457255453
 30
0.0
 40
2.0
 41
30.73155332927162
 46
0.0
 71
     1
 72
     5
  1
{\fMS PGothic|b0|i0|c128|p50;ＰＳ０６０ＦＬ－１０７６}
 73
     1
 44
0.75
101
Embedded Object
 70
     1
 10
1.0
 20
0.0
 30
0.0
 11
597.3044751701658
 21
405.165457255453
 31
0.0
 40
30.73155332927162
 41
0.0
 42
24.20454545454545
 43
2.011363636363636
 71
     2
 72
     1
 44
30.73155332927162
 45
0.8849620939533352
 73
     0
 74
     0
 46
2.580461047574065
  0
MTEXT
  5
46E
330
1F
100
AcDbEntity
  8
文字
  6
Continuous
370
    13
100
AcDbMText
 10
597.3044751701658
 20
399.855684691733
 30
0.0
 40
2.0
 41
70.40947226366224
 46
0.0
 71
     1
 72
     5
  1
{\fMS PGothic|b0|i0|c128|p50;ＲＣ床厚さ75以上\PＡＬＣ床　厚さ100以上}
 73
     1
 44
0.75
101
Embedded Object
 70
     1
 10
1.0
 20
0.0
 30
0.0
 11
597.3044751701658
 21
399.855684691733
 31
0.0
 40
70.40947226366224
 41
0.0
 42
25.94318181818182
 43
5.346590909090908
 71
     2
 72
     1
 44
70.40947226366224
 45
0.8849620939533352
 73
     0
 74
     0
 46
6.730773784615596
  0
MTEXT
  5
46F
330
1F
100
AcDbEntity
  8
文字
  6
Continuous
370
    13
100
AcDbMText
 10
597.3044751701658
 20
378.6165944368527
 30
0.0
 40
2.0
 41
64.66206961151364
 46
0.0
 71
     1
 72
     5
  1
{\fMS PGothic|b0|i0|c128|p50;①モルタル埋設　１６．４％以下\P②コンクリート埋設　１００％以下}
 73
     1
 44
0.75
101
Embedded Object
 70
     1
 10
1.0
 20
0.0
 30
0.0
 11
597.3044751701658
 21
378.6165944368527
 31
0.0
 40
64.66206961151364
 41
0.0
 42
39.05681818181818
 43
5.627840909090909
 71
     2
 72
     1
 44
64.66206961151364
 45
0.8849620939533352
 73
     0
 74
     0
 46
7.453916273675279
  0
MTEXT
  5
470
330
1F
100
AcDbEntity
  8
文字
  6
Continuous
370
    13
100
AcDbMText
 10
597.5014729495869
 20
362.6872767456926
 30
0.0
 40
2.0
 41
30.73155332927162
 46
0.0
 71
     1
 72
     5
  1
{\fMS PGothic|b0|i0|c128|p50;１５０㎟以下（６００Ｖ）}
 73
     1
 44
0.75
101
Embedded Object
 70
     1
 10
1.0
 20
0.0
 30
0.0
 11
597.5014729495869
 21
362.6872767456926
 31
0.0
 40
30.73155332927162
 41
0.0
 42
24.70454545454546
 43
2.670454545454545
 71
     2
 72
     1
 44
30.73155332927162
 45
0.8849620939533352
 73
     0
 74
     0
 46
2.580461047574065
  0
MTEXT
  5
471
330
1F
100
AcDbEntity
  8
文字
  6
Continuous
370
    13
100
AcDbMText
 10
597.501472949587
 20
367.9970493094124
 30
0.0
 40
2.0
 41
42.34838739399164
 46
0.0
 71
     1
 72
     5
  1
{\fMS PGothic|b0|i0|c128|p50;ＰＦ４２以下、ＣＤ４２以下}
 73
     1
 44
0.75
101
Embedded Object
 70
     1
 10
1.0
 20
0.0
 30
0.0
 11
597.501472949587
 21
367.9970493094124
 31
0.0
 40
42.34838739399164
 41
0.0
 42
29.25
 43
2.409090909090909
 71
     2
 72
     1
 44
42.34838739399164
 45
0.8849620939533352
 73
     0
 74
     0
 46
2.257972420930603
  0
LINE
  5
472
330
1F
100
AcDbEntity
  8
図面枠
  6
Continuous
370
    13
100
AcDbLine
 10
672.7330596658166
 20
412.0713215417429
 30
0.0
 11
672.7330596658165
 21
298.4142544971891
 31
0.0
  0
MTEXT
  5
473
330
1F
100
AcDbEntity
  8
文字
  6
Continuous
370
    13
100
AcDbMText
 10
628.528315928865
 20
410.4336280231708
 30
0.0
 40
2.0
 41
30.73155332927162
 46
0.0
 71
     1
 72
     5
  1
仕様
 73
     1
 44
0.75
101
Embedded Object
 70
     1
 10
1.0
 20
0.0
 30
0.0
 11
628.528315928865
 21
410.4336280231708
 31
0.0
 40
30.73155332927162
 41
0.0
 42
5.556818181818181
 43
2.625
 71
     2
 72
     1
 44
30.73155332927162
 45
0.8849620939533352
 73
     0
 74
     0
 46
2.580461047574065
  0
MTEXT
  5
474
330
1F
100
AcDbEntity
  8
文字
  6
Continuous
370
    13
100
AcDbMText
 10
519.283824118453
 20
367.9970493094121
 30
0.0
 40
2.0
 41
60.7835669328564
 46
0.0
 71
     1
 72
     5
  1
合成樹脂製可とう電線管
 73
     1
 44
0.75
101
Embedded Object
 70
     1
 10
1.0
 20
0.0
 30
0.0
 11
519.283824118453
 21
367.9970493094121
 31
0.0
 40
60.7835669328564
 41
0.0
 42
30.07954545454545
 43
2.704545454545454
 71
     2
 72
     1
 44
60.7835669328564
 45
0.8849620939533352
 73
     0
 74
     0
 46
2.569124224878326
  0
MTEXT
  5
476
330
1F
100
AcDbEntity
  8
文字
  6
Continuous
370
    13
100
AcDbMText
 10
486.6300616084794
 20
357.3775041819724
 30
0.0
 40
2.0
 41
30.73155332927162
 46
0.0
 71
     1
 72
     5
  1
{\fMS PGothic|b0|i0|c128|p50;熱膨張シート}
 73
     1
 44
0.75
101
Embedded Object
 70
     1
 10
1.0
 20
0.0
 30
0.0
 11
486.6300616084794
 21
357.3775041819724
 31
0.0
 40
30.73155332927162
 41
0.0
 42
15.69318181818182
 43
2.647727272727272
 71
     2
 72
     1
 44
30.73155332927162
 45
0.8849620939533352
 73
     0
 74
     0
 46
2.580461047574065
  0
MTEXT
  5
477
330
1F
100
AcDbEntity
  8
文字
  6
Continuous
370
    13
100
AcDbMText
 10
597.3044751701658
 20
357.3775041819724
 30
0.0
 40
2.0
 41
30.73155332927162
 46
0.0
 71
     1
 72
     5
  1
{\fMS PGothic|b0|i0|c128|p50;床埋設管用耐火シート}
 73
     1
 44
0.75
101
Embedded Object
 70
     1
 10
1.0
 20
0.0
 30
0.0
 11
597.3044751701658
 21
357.3775041819724
 31
0.0
 40
30.73155332927162
 41
0.0
 42
27.32954545454546
 43
2.625
 71
     2
 72
     1
 44
30.73155332927162
 45
0.8849620939533352
 73
     0
 74
     0
 46
2.580461047574065
  0
LINE
  5
478
330
1F
100
AcDbEntity
  8
図面枠
  6
Continuous
370
    13
100
AcDbLine
 10
672.7330596658166
 20
390.8322312868626
 30
0.0
 11
481.4641737924785
 21
390.8322312868626
 31
0.0
  0
LINE
  5
479
330
1F
100
AcDbEntity
  8
図面枠
  6
Continuous
370
    13
100
AcDbLine
 10
672.7330596658166
 20
385.5224587231425
 30
0.0
 11
514.117936302452
 21
385.5224587231425
 31
0.0
  0
MTEXT
  5
47A
330
1F
100
AcDbEntity
  8
文字
  6
Continuous
370
    13
100
AcDbMText
 10
486.6300616084794
 20
389.2361395642928
 30
0.0
 40
2.0
 41
25.63089359542973
 46
0.0
 71
     1
 72
     5
  1
{\fMS PGothic|b0|i0|c128|p50;開口部}
 73
     1
 44
0.75
101
Embedded Object
 70
     1
 10
1.0
 20
0.0
 30
0.0
 11
486.6300616084794
 21
389.2361395642928
 31
0.0
 40
25.63089359542973
 41
0.0
 42
8.284090909090908
 43
2.613636363636363
 71
     2
 72
     1
 44
25.63089359542973
 45
0.8849620939533352
 73
     0
 74
     0
 46
6.346310181833107
  0
LINE
  5
47B
330
1F
100
AcDbEntity
  8
図面枠
  6
Continuous
370
    13
100
AcDbLine
 10
514.117936302452
 20
390.8322312868626
 30
0.0
 11
514.117936302452
 21
380.2126861594223
 31
0.0
  0
MTEXT
  5
47C
330
1F
100
AcDbEntity
  8
文字
  6
Continuous
370
    13
100
AcDbMText
 10
519.283824118453
 20
389.2361395642928
 30
0.0
 40
2.0
 41
30.73155332927162
 46
0.0
 71
     1
 72
     5
  1
形状（開口サイズ）
 73
     1
 44
0.75
101
Embedded Object
 70
     1
 10
1.0
 20
0.0
 30
0.0
 11
519.283824118453
 21
389.2361395642928
 31
0.0
 40
30.73155332927162
 41
0.0
 42
21.92045454545455
 43
2.71590909090909
 71
     2
 72
     1
 44
30.73155332927162
 45
0.8849620939533352
 73
     0
 74
     0
 46
2.580461047574065
  0
MTEXT
  5
47D
330
1F
100
AcDbEntity
  8
文字
  6
Continuous
370
    13
100
AcDbMText
 10
519.283824118453
 20
383.9263670005727
 30
0.0
 40
2.0
 41
30.73155332927162
 46
0.0
 71
     1
 72
     5
  1
面積
 73
     1
 44
0.75
101
Embedded Object
 70
     1
 10
1.0
 20
0.0
 30
0.0
 11
519.283824118453
 21
383.9263670005727
 31
0.0
 40
30.73155332927162
 41
0.0
 42
5.443181818181818
 43
2.647727272727272
 71
     2
 72
     1
 44
30.73155332927162
 45
0.8849620939533352
 73
     0
 74
     0
 46
2.580461047574065
  0
MTEXT
  5
47E
330
1F
100
AcDbEntity
  8
文字
  6
Continuous
370
    13
100
AcDbMText
 10
597.3044751701658
 20
389.2361395642928
 30
0.0
 40
2.0
 41
66.48608853860095
 46
0.0
 71
     1
 72
     5
  1
{\fMS PGothic|b0|i0|c128|p50;円形（Φ１６０以下）}
 73
     1
 44
0.75
101
Embedded Object
 70
     1
 10
1.0
 20
0.0
 30
0.0
 11
597.3044751701658
 21
389.2361395642928
 31
0.0
 40
66.48608853860095
 41
0.0
 42
22.54545454545455
 43
2.5
 71
     2
 72
     1
 44
66.48608853860095
 45
0.8849620939533352
 73
     0
 74
     0
 46
2.443551602786758
  0
MTEXT
  5
47F
330
1F
100
AcDbEntity
  8
文字
  6
Continuous
370
    13
100
AcDbMText
 10
597.3044751701658
 20
383.9263670005727
 30
0.0
 40
2.0
 41
30.73155332927162
 46
0.0
 71
     1
 72
     5
  1
{\fMS PGothic|b0|i0|c128|p50;０}.{\fMS PGothic|b0|i0|c128|p50;０２㎡以下}
 73
     1
 44
0.75
101
Embedded Object
 70
     1
 10
1.0
 20
0.0
 30
0.0
 11
597.3044751701658
 21
383.9263670005727
 31
0.0
 40
30.73155332927162
 41
0.0
 42
15.04898920997147
 43
2.647727272727272
 71
     2
 72
     1
 44
30.73155332927162
 45
0.8849620939533352
 73
     0
 74
     0
 46
2.580461047574065
  0
LINE
  5
482
330
1F
100
AcDbEntity
  8
図面枠
  6
Continuous
370
    13
100
AcDbLine
 10
672.7330596658166
 20
353.663823340822
 30
0.0
 11
481.4641737924785
 21
353.663823340822
 31
0.0
  0
MTEXT
  5
776
330
1F
100
AcDbEntity
  8
文字
  6
Continuous
370
    13
100
AcDbMText
 10
498.333911112543
 20
585.9297350433975
 30
0.0
 40
3.0
 41
91.19822119244453
 46
0.0
 71
     1
 72
     5
  1
{\fMS PGothic|b0|i0|c128|p50;【電気設備】防火区画床垂直埋設　ＲＣ・ＡＬＣ床}
 73
     1
 44
0.75
101
Embedded Object
 70
     1
 10
1.0
 20
0.0
 30
0.0
 11
498.333911112543
 21
585.9297350433975
 31
0.0
 40
91.19822119244453
 41
0.0
 42
85.41477272727272
 43
4.124999999999999
 71
     2
 72
     1
 44
91.19822119244453
 45
0.8849620939533352
 73
     0
 74
     0
 46
12.64469798951424
  0
LINE
  5
777
330
1F
100
AcDbEntity
  8
躯体・通線物他
  6
Continuous
370
    13
100
AcDbLine
 10
557.6708768951978
 20
496.056364908231
 30
0.0
 11
542.0278965731072
 21
480.4133845861484
 31
0.0
  0
LINE
  5
778
330
1F
100
AcDbEntity
  8
躯体・通線物他
  6
Continuous
370
    13
100
AcDbLine
 10
556.1065788629892
 20
496.0563649082337
 30
0.0
 11
540.4635985408988
 21
480.4133845861484
 31
0.0
  0
LINE
  5
779
330
1F
100
AcDbEntity
  8
躯体・通線物他
  6
Continuous
370
    13
100
AcDbLine
 10
559.2351749274062
 20
496.0563649082337
 30
0.0
 11
543.5921946053158
 21
480.4133845861484
 31
0.0
  0
LINE
  5
77A
330
1F
100
AcDbEntity
  8
躯体・通線物他
  6
Continuous
370
    13
100
AcDbLine
 10
503.9249204160999
 20
496.0564534737669
 30
0.0
 11
489.733776567897
 21
481.865347426628
 31
0.0
  0
LINE
  5
77B
330
1F
100
AcDbEntity
  8
躯体・通線物他
  6
Continuous
370
    13
100
AcDbLine
 10
507.0535164805138
 20
496.0564493069281
 30
0.0
 11
491.410410091063
 21
480.4133845861456
 31
0.0
  0
LINE
  5
77C
330
1F
100
AcDbEntity
  8
躯体・通線物他
  6
Continuous
370
    13
100
AcDbLine
 10
505.489218448307
 20
496.0564513903475
 30
0.0
 11
490.1890339997016
 21
480.7563076969662
 31
0.0
  0
LINE
  5
77D
330
1F
100
AcDbEntity
  8
躯体・通線物他
  6
Continuous
370
    13
100
AcDbLine
 10
490.3716521708743
 20
496.056364908231
 30
0.0
 11
510.3805977099345
 21
496.056364908231
 31
0.0
  0
LINE
  5
77E
330
1F
100
AcDbEntity
  8
躯体・通線物他
  6
Continuous
370
    13
100
AcDbLine
 10
510.3805977099345
 20
496.056364908231
 30
0.0
 11
510.3805977099345
 21
480.4133845861456
 31
0.0
  0
LINE
  5
77F
330
1F
100
AcDbEntity
  8
躯体・通線物他
  6
Continuous
370
    13
100
AcDbLine
 10
510.3805977099345
 20
480.4133845861455
 30
0.0
 11
490.3716521708743
 21
480.4133845861455
 31
0.0
  0
LINE
  5
786
330
1F
100
AcDbEntity
  8
躯体・通線物他
  6
Continuous
370
    13
100
AcDbLine
 10
538.8133367240376
 20
496.056364908231
 30
0.0
 11
538.8133489238499
 21
480.4133845861484
 31
0.0
  0
LINE
  5
796
330
1F
100
AcDbEntity
  8
防火材
  6
Continuous
370
    13
100
AcDbLine
 10
522.1222835087622
 20
454.8968945502446
 30
0.0
 11
522.1222835087622
 21
494.1606193043094
 31
0.0
  0
LINE
  5
797
330
1F
100
AcDbEntity
  8
防火材
  6
Continuous
370
    13
100
AcDbLine
 10
522.1222835087626
 20
494.1606193043094
 30
0.0
 11
522.1222835087626
 21
494.2722728566298
 31
0.0
  0
LINE
  5
798
330
1F
100
AcDbEntity
  8
防火材
  6
Continuous
 48
0.1
370
    13
100
AcDbLine
 10
522.1222835087626
 20
494.2722728566298
 30
0.0
 11
522.1222835087624
 21
496.0563925945566
 31
0.0
  0
LINE
  5
799
330
1F
100
AcDbEntity
  8
防火材
  6
Continuous
370
    13
100
AcDbLine
 10
522.1222835087626
 20
501.2661409158975
 30
0.0
 11
522.1222835087622
 21
551.7172475833519
 31
0.0
  0
ARC
  5
79A
330
1F
100
AcDbEntity
  8
防火材
  6
Continuous
370
    13
100
AcDbCircle
 10
523.3792901727158
 20
551.017318570688
 30
0.0
 40
1.438737771821279
100
AcDbArc
 50
29.11002421790882
 51
150.8899757796024
  0
ARC
  5
79B
330
1F
100
AcDbEntity
  8
防火材
  6
Continuous
370
    13
100
AcDbCircle
 10
523.3792901727516
 20
552.7160180359981
 30
0.0
 40
1.605493123745212
100
AcDbArc
 50
218.4693394477595
 51
321.5306605497435
  0
ARC
  5
79F
330
1F
100
AcDbEntity
  8
防火材
  6
Continuous
370
    13
100
AcDbCircle
 10
525.8933035007035
 20
551.0893042561194
 30
0.0
 40
1.405125821948692
100
AcDbArc
 50
26.54462702023256
 51
153.4553729797674
  0
LINE
  5
7A4
330
1F
100
AcDbEntity
  8
防火材
  6
Continuous
370
    13
100
AcDbLine
 10
527.1503101646839
 20
454.8968945502964
 30
0.0
 11
527.1503101646839
 21
494.1606193043094
 31
0.0
  0
LINE
  5
7A5
330
1F
100
AcDbEntity
  8
防火材
  6
Continuous
370
    13
100
AcDbLine
 10
527.1503101646839
 20
494.1606193043094
 30
0.0
 11
527.1503101646839
 21
494.2722728566298
 31
0.0
  0
LINE
  5
7A6
330
1F
100
AcDbEntity
  8
防火材
  6
Continuous
 48
0.1
370
    13
100
AcDbLine
 10
527.1503101646839
 20
494.2722728566298
 30
0.0
 11
527.1503101646839
 21
496.0563925945566
 31
0.0
  0
LINE
  5
7A7
330
1F
100
AcDbEntity
  8
防火材
  6
Continuous
370
    13
100
AcDbLine
 10
527.1503101646839
 20
501.2661409158975
 30
0.0
 11
527.1503101646839
 21
551.7172475833519
 31
0.0
  0
LINE
  5
7AE
330
1F
100
AcDbEntity
  8
防火材
  6
Continuous
370
    13
100
AcDbLine
 10
522.1222835087622
 20
511.3999389484523
 30
0.0
 11
527.1503101646839
 21
511.3999389484523
 31
0.0
  0
LINE
  5
7AF
330
1F
100
AcDbEntity
  8
防火材
  6
Continuous
370
    13
100
AcDbLine
 10
522.1222835087622
 20
512.4704180791911
 30
0.0
 11
527.1503101646839
 21
512.4704180791911
 31
0.0
  0
LINE
  5
7B0
330
1F
100
AcDbEntity
  8
防火材
  6
Continuous
370
    13
100
AcDbLine
 10
522.1222835087622
 20
513.5408972099301
 30
0.0
 11
527.1503101646839
 21
513.5408972099301
 31
0.0
  0
LINE
  5
7B1
330
1F
100
AcDbEntity
  8
防火材
  6
Continuous
370
    13
100
AcDbLine
 10
522.1222835087622
 20
514.6113763406693
 30
0.0
 11
527.1503101646839
 21
514.6113763406693
 31
0.0
  0
LINE
  5
7B2
330
1F
100
AcDbEntity
  8
防火材
  6
Continuous
370
    13
100
AcDbLine
 10
522.1222835087622
 20
515.6818554714079
 30
0.0
 11
527.1503101646839
 21
515.6818554714079
 31
0.0
  0
LINE
  5
7B3
330
1F
100
AcDbEntity
  8
防火材
  6
Continuous
370
    13
100
AcDbLine
 10
522.1222835087622
 20
516.7523346021455
 30
0.0
 11
527.1503101646839
 21
516.7523346021455
 31
0.0
  0
LINE
  5
7B4
330
1F
100
AcDbEntity
  8
防火材
  6
Continuous
370
    13
100
AcDbLine
 10
522.1222835087622
 20
517.8228137328849
 30
0.0
 11
527.1503101646839
 21
517.8228137328849
 31
0.0
  0
LINE
  5
7B5
330
1F
100
AcDbEntity
  8
防火材
  6
Continuous
370
    13
100
AcDbLine
 10
522.1222835087622
 20
518.8932928636236
 30
0.0
 11
527.1503101646839
 21
518.8932928636236
 31
0.0
  0
LINE
  5
7B6
330
1F
100
AcDbEntity
  8
防火材
  6
Continuous
370
    13
100
AcDbLine
 10
522.1222835087622
 20
519.9637719943641
 30
0.0
 11
527.1503101646839
 21
519.9637719943641
 31
0.0
  0
LINE
  5
7B7
330
1F
100
AcDbEntity
  8
防火材
  6
Continuous
370
    13
100
AcDbLine
 10
522.1222835087622
 20
521.0342511251017
 30
0.0
 11
527.1503101646839
 21
521.0342511251017
 31
0.0
  0
LINE
  5
7B8
330
1F
100
AcDbEntity
  8
防火材
  6
Continuous
370
    13
100
AcDbLine
 10
522.1222835087622
 20
522.1047302558406
 30
0.0
 11
527.1503101646839
 21
522.1047302558406
 31
0.0
  0
LINE
  5
7B9
330
1F
100
AcDbEntity
  8
防火材
  6
Continuous
370
    13
100
AcDbLine
 10
522.1222835087622
 20
523.1752093865797
 30
0.0
 11
527.1503101646839
 21
523.1752093865797
 31
0.0
  0
LINE
  5
7BA
330
1F
100
AcDbEntity
  8
防火材
  6
Continuous
370
    13
100
AcDbLine
 10
522.1222835087622
 20
524.159190447872
 30
0.0
 11
527.1503101646839
 21
524.159190447872
 31
0.0
  0
LINE
  5
7BB
330
1F
100
AcDbEntity
  8
防火材
  6
Continuous
370
    13
100
AcDbLine
 10
522.1222835087622
 20
525.2606580274901
 30
0.0
 11
527.1503101646839
 21
525.2606580274901
 31
0.0
  0
LINE
  5
7BC
330
1F
100
AcDbEntity
  8
防火材
  6
Continuous
370
    13
100
AcDbLine
 10
522.1222835087622
 20
526.3311371582297
 30
0.0
 11
527.1503101646839
 21
526.3311371582297
 31
0.0
  0
LINE
  5
7BD
330
1F
100
AcDbEntity
  8
防火材
  6
Continuous
370
    13
100
AcDbLine
 10
522.1222835087622
 20
527.4016162889684
 30
0.0
 11
527.1503101646839
 21
527.4016162889684
 31
0.0
  0
LINE
  5
7BE
330
1F
100
AcDbEntity
  8
防火材
  6
Continuous
370
    13
100
AcDbLine
 10
522.1222835087622
 20
528.4720954197076
 30
0.0
 11
527.1503101646839
 21
528.4720954197076
 31
0.0
  0
LINE
  5
7BF
330
1F
100
AcDbEntity
  8
防火材
  6
Continuous
370
    13
100
AcDbLine
 10
522.1222835087622
 20
529.5425745504465
 30
0.0
 11
527.1503101646839
 21
529.5425745504465
 31
0.0
  0
LINE
  5
7C0
330
1F
100
AcDbEntity
  8
防火材
  6
Continuous
370
    13
100
AcDbLine
 10
522.1222835087622
 20
530.6130536811856
 30
0.0
 11
527.1503101646839
 21
530.6130536811856
 31
0.0
  0
LINE
  5
7C1
330
1F
100
AcDbEntity
  8
防火材
  6
Continuous
370
    13
100
AcDbLine
 10
522.1222835087622
 20
531.6835328119229
 30
0.0
 11
527.1503101646839
 21
531.6835328119229
 31
0.0
  0
LINE
  5
7C2
330
1F
100
AcDbEntity
  8
防火材
  6
Continuous
370
    13
100
AcDbLine
 10
522.1222835087622
 20
532.7540119426621
 30
0.0
 11
527.1503101646839
 21
532.7540119426621
 31
0.0
  0
LINE
  5
7C3
330
1F
100
AcDbEntity
  8
防火材
  6
Continuous
370
    13
100
AcDbLine
 10
522.1222835087622
 20
533.8244910734005
 30
0.0
 11
527.1503101646839
 21
533.8244910734005
 31
0.0
  0
LINE
  5
7C4
330
1F
100
AcDbEntity
  8
防火材
  6
Continuous
370
    13
100
AcDbLine
 10
522.1222835087622
 20
534.8949702041402
 30
0.0
 11
527.1503101646839
 21
534.8949702041402
 31
0.0
  0
LINE
  5
7C5
330
1F
100
AcDbEntity
  8
防火材
  6
Continuous
370
    13
100
AcDbLine
 10
522.1222835087622
 20
535.9654493348787
 30
0.0
 11
527.1503101646839
 21
535.9654493348787
 31
0.0
  0
LINE
  5
7C6
330
1F
100
AcDbEntity
  8
防火材
  6
Continuous
370
    13
100
AcDbLine
 10
522.1222835087622
 20
537.035928465618
 30
0.0
 11
527.1503101646839
 21
537.035928465618
 31
0.0
  0
LINE
  5
7C7
330
1F
100
AcDbEntity
  8
防火材
  6
Continuous
370
    13
100
AcDbLine
 10
522.1222835087622
 20
538.1064075963568
 30
0.0
 11
527.1503101646839
 21
538.1064075963568
 31
0.0
  0
LINE
  5
7C8
330
1F
100
AcDbEntity
  8
防火材
  6
Continuous
370
    13
100
AcDbLine
 10
522.1222835087622
 20
550.6467684526135
 30
0.0
 11
527.1503101646839
 21
550.6467684526135
 31
0.0
  0
LINE
  5
7CC
330
1F
100
AcDbEntity
  8
防火材
  6
HIDDEN2
 48
0.3
370
    13
100
AcDbLine
 10
522.1222835087622
 20
500.6951476410637
 30
0.0
 11
527.1503101646839
 21
500.6951476410637
 31
0.0
  0
LINE
  5
7CD
330
1F
100
AcDbEntity
  8
防火材
  6
Continuous
370
    13
100
AcDbLine
 10
522.1222835087622
 20
501.7656267718026
 30
0.0
 11
527.1503101646839
 21
501.7656267718026
 31
0.0
  0
LINE
  5
7CE
330
1F
100
AcDbEntity
  8
防火材
  6
Continuous
370
    13
100
AcDbLine
 10
522.1222835087622
 20
502.8361059025417
 30
0.0
 11
527.1503101646839
 21
502.8361059025417
 31
0.0
  0
LINE
  5
7CF
330
1F
100
AcDbEntity
  8
防火材
  6
Continuous
370
    13
100
AcDbLine
 10
522.1222835087622
 20
503.9065850332806
 30
0.0
 11
527.1503101646839
 21
503.9065850332806
 31
0.0
  0
LINE
  5
7D0
330
1F
100
AcDbEntity
  8
防火材
  6
Continuous
370
    13
100
AcDbLine
 10
522.1222835087622
 20
504.9770641640185
 30
0.0
 11
527.1503101646839
 21
504.9770641640185
 31
0.0
  0
LINE
  5
7D1
330
1F
100
AcDbEntity
  8
防火材
  6
Continuous
370
    13
100
AcDbLine
 10
522.1222835087622
 20
506.0475432947572
 30
0.0
 11
527.1503101646839
 21
506.0475432947572
 31
0.0
  0
LINE
  5
7D2
330
1F
100
AcDbEntity
  8
防火材
  6
Continuous
370
    13
100
AcDbLine
 10
522.1222835087622
 20
507.1180224254965
 30
0.0
 11
527.1503101646839
 21
507.1180224254965
 31
0.0
  0
LINE
  5
7D3
330
1F
100
AcDbEntity
  8
防火材
  6
Continuous
370
    13
100
AcDbLine
 10
522.1222835087622
 20
508.188501556235
 30
0.0
 11
527.1503101646839
 21
508.188501556235
 31
0.0
  0
LINE
  5
7D4
330
1F
100
AcDbEntity
  8
防火材
  6
Continuous
370
    13
100
AcDbLine
 10
522.1222835087622
 20
509.2589806869741
 30
0.0
 11
527.1503101646839
 21
509.2589806869741
 31
0.0
  0
LINE
  5
7D5
330
1F
100
AcDbEntity
  8
防火材
  6
Continuous
370
    13
100
AcDbLine
 10
522.1222835087622
 20
510.3294598177131
 30
0.0
 11
527.1503101646839
 21
510.3294598177131
 31
0.0
  0
LINE
  5
7D6
330
1F
100
AcDbEntity
  8
防火材
  6
Continuous
 48
0.1
370
    13
100
AcDbLine
 10
522.1222835087622
 20
494.2722728566298
 30
0.0
 11
527.1503101646839
 21
494.2722728566298
 31
0.0
  0
LINE
  5
7D7
330
1F
100
AcDbEntity
  8
防火材
  6
Continuous
 48
0.1
370
    13
100
AcDbLine
 10
522.1222835087622
 20
495.3427519873685
 30
0.0
 11
527.1503101646839
 21
495.3427519873685
 31
0.0
  0
LINE
  5
7D8
330
1F
100
AcDbEntity
  8
防火材
  6
HIDDEN2
 48
0.3
370
    13
100
AcDbLine
 10
522.1222835087622
 20
496.4132311181079
 30
0.0
 11
527.1503101646839
 21
496.4132311181079
 31
0.0
  0
LINE
  5
7D9
330
1F
100
AcDbEntity
  8
防火材
  6
HIDDEN2
 48
0.3
370
    13
100
AcDbLine
 10
522.1222835087622
 20
497.4837102488469
 30
0.0
 11
527.1503101646839
 21
497.4837102488469
 31
0.0
  0
LINE
  5
7DA
330
1F
100
AcDbEntity
  8
防火材
  6
HIDDEN2
 48
0.3
370
    13
100
AcDbLine
 10
522.1222835087622
 20
498.554189379586
 30
0.0
 11
527.1503101646839
 21
498.554189379586
 31
0.0
  0
LINE
  5
7DB
330
1F
100
AcDbEntity
  8
防火材
  6
HIDDEN2
 48
0.3
370
    13
100
AcDbLine
 10
522.1222835087622
 20
499.6246685103245
 30
0.0
 11
527.1503101646839
 21
499.6246685103245
 31
0.0
  0
LINE
  5
7DC
330
1F
100
AcDbEntity
  8
防火材
  6
Continuous
370
    13
100
AcDbLine
 10
522.1222835087622
 20
483.7998310802456
 30
0.0
 11
527.1503101646839
 21
483.7998310802456
 31
0.0
  0
LINE
  5
7DD
330
1F
100
AcDbEntity
  8
防火材
  6
Continuous
370
    13
100
AcDbLine
 10
522.1222835087622
 20
484.8703102109833
 30
0.0
 11
527.1503101646839
 21
484.8703102109833
 31
0.0
  0
LINE
  5
7DE
330
1F
100
AcDbEntity
  8
防火材
  6
Continuous
370
    13
100
AcDbLine
 10
522.1222835087622
 20
485.9407893417222
 30
0.0
 11
527.1503101646839
 21
485.9407893417222
 31
0.0
  0
LINE
  5
7DF
330
1F
100
AcDbEntity
  8
防火材
  6
Continuous
370
    13
100
AcDbLine
 10
522.1222835087622
 20
487.0112684724622
 30
0.0
 11
527.1503101646839
 21
487.0112684724622
 31
0.0
  0
LINE
  5
7E0
330
1F
100
AcDbEntity
  8
防火材
  6
Continuous
370
    13
100
AcDbLine
 10
522.1222835087622
 20
488.0817476031999
 30
0.0
 11
527.1503101646839
 21
488.0817476031999
 31
0.0
  0
LINE
  5
7E1
330
1F
100
AcDbEntity
  8
防火材
  6
Continuous
370
    13
100
AcDbLine
 10
522.1222835087622
 20
489.1522267339391
 30
0.0
 11
527.1503101646839
 21
489.1522267339391
 31
0.0
  0
LINE
  5
7E2
330
1F
100
AcDbEntity
  8
防火材
  6
Continuous
370
    13
100
AcDbLine
 10
522.1222835087622
 20
490.2227058646781
 30
0.0
 11
527.1503101646839
 21
490.2227058646781
 31
0.0
  0
LINE
  5
7E3
330
1F
100
AcDbEntity
  8
防火材
  6
Continuous
370
    13
100
AcDbLine
 10
522.1222835087622
 20
491.2931849954173
 30
0.0
 11
527.1503101646839
 21
491.2931849954173
 31
0.0
  0
LINE
  5
7E4
330
1F
100
AcDbEntity
  8
防火材
  6
Continuous
370
    13
100
AcDbLine
 10
522.1222835087622
 20
492.3636641261563
 30
0.0
 11
527.1503101646839
 21
492.3636641261563
 31
0.0
  0
LINE
  5
7E5
330
1F
100
AcDbEntity
  8
防火材
  6
Continuous
370
    13
100
AcDbLine
 10
522.1222835087622
 20
493.4341432568949
 30
0.0
 11
527.1503101646839
 21
493.4341432568949
 31
0.0
  0
LINE
  5
7E6
330
1F
100
AcDbEntity
  8
防火材
  6
Continuous
370
    13
100
AcDbLine
 10
522.1222835087622
 20
473.0950397728559
 30
0.0
 11
527.1503101646839
 21
473.0950397728559
 31
0.0
  0
LINE
  5
7E7
330
1F
100
AcDbEntity
  8
防火材
  6
Continuous
370
    13
100
AcDbLine
 10
522.1222835087622
 20
474.1655189035948
 30
0.0
 11
527.1503101646839
 21
474.1655189035948
 31
0.0
  0
LINE
  5
7E8
330
1F
100
AcDbEntity
  8
防火材
  6
Continuous
370
    13
100
AcDbLine
 10
522.1222835087622
 20
475.2359980343336
 30
0.0
 11
527.1503101646839
 21
475.2359980343336
 31
0.0
  0
LINE
  5
7E9
330
1F
100
AcDbEntity
  8
防火材
  6
Continuous
370
    13
100
AcDbLine
 10
522.1222835087622
 20
476.3064771650729
 30
0.0
 11
527.1503101646839
 21
476.3064771650729
 31
0.0
  0
LINE
  5
7EA
330
1F
100
AcDbEntity
  8
防火材
  6
Continuous
370
    13
100
AcDbLine
 10
522.1222835087622
 20
477.3769562958117
 30
0.0
 11
527.1503101646839
 21
477.3769562958117
 31
0.0
  0
LINE
  5
7EB
330
1F
100
AcDbEntity
  8
防火材
  6
Continuous
370
    13
100
AcDbLine
 10
522.1222835087622
 20
478.447435426551
 30
0.0
 11
527.1503101646839
 21
478.447435426551
 31
0.0
  0
LINE
  5
7EC
330
1F
100
AcDbEntity
  8
防火材
  6
Continuous
370
    13
100
AcDbLine
 10
522.1222835087622
 20
479.5179145572895
 30
0.0
 11
527.1503101646839
 21
479.5179145572895
 31
0.0
  0
LINE
  5
7ED
330
1F
100
AcDbEntity
  8
防火材
  6
Continuous
370
    13
100
AcDbLine
 10
522.1222835087622
 20
480.5883936880286
 30
0.0
 11
527.1503101646839
 21
480.5883936880286
 31
0.0
  0
LINE
  5
7EE
330
1F
100
AcDbEntity
  8
防火材
  6
Continuous
370
    13
100
AcDbLine
 10
522.1222835087622
 20
481.6588728187675
 30
0.0
 11
527.1503101646839
 21
481.6588728187675
 31
0.0
  0
LINE
  5
7EF
330
1F
100
AcDbEntity
  8
防火材
  6
Continuous
370
    13
100
AcDbLine
 10
522.1222835087622
 20
482.7293519495067
 30
0.0
 11
527.1503101646839
 21
482.7293519495067
 31
0.0
  0
LINE
  5
7F0
330
1F
100
AcDbEntity
  8
防火材
  6
Continuous
370
    13
100
AcDbLine
 10
522.1222835087622
 20
462.3902484654684
 30
0.0
 11
527.1503101646839
 21
462.3902484654684
 31
0.0
  0
LINE
  5
7F1
330
1F
100
AcDbEntity
  8
防火材
  6
Continuous
370
    13
100
AcDbLine
 10
522.1222835087622
 20
463.4607275962062
 30
0.0
 11
527.1503101646839
 21
463.4607275962062
 31
0.0
  0
LINE
  5
7F2
330
1F
100
AcDbEntity
  8
防火材
  6
Continuous
370
    13
100
AcDbLine
 10
522.1222835087622
 20
464.5312067269454
 30
0.0
 11
527.1503101646839
 21
464.5312067269454
 31
0.0
  0
LINE
  5
7F3
330
1F
100
AcDbEntity
  8
防火材
  6
Continuous
370
    13
100
AcDbLine
 10
522.1222835087622
 20
465.6016858576842
 30
0.0
 11
527.1503101646839
 21
465.6016858576842
 31
0.0
  0
LINE
  5
7F4
330
1F
100
AcDbEntity
  8
防火材
  6
Continuous
370
    13
100
AcDbLine
 10
522.1222835087622
 20
466.6721649884235
 30
0.0
 11
527.1503101646839
 21
466.6721649884235
 31
0.0
  0
LINE
  5
7F5
330
1F
100
AcDbEntity
  8
防火材
  6
Continuous
370
    13
100
AcDbLine
 10
522.1222835087622
 20
467.7426441191624
 30
0.0
 11
527.1503101646839
 21
467.7426441191624
 31
0.0
  0
LINE
  5
7F6
330
1F
100
AcDbEntity
  8
防火材
  6
Continuous
370
    13
100
AcDbLine
 10
522.1222835087622
 20
468.8131232499012
 30
0.0
 11
527.1503101646839
 21
468.8131232499012
 31
0.0
  0
LINE
  5
7F7
330
1F
100
AcDbEntity
  8
防火材
  6
Continuous
370
    13
100
AcDbLine
 10
522.1222835087622
 20
469.8836023806405
 30
0.0
 11
527.1503101646839
 21
469.8836023806405
 31
0.0
  0
LINE
  5
7F8
330
1F
100
AcDbEntity
  8
防火材
  6
Continuous
370
    13
100
AcDbLine
 10
522.1222835087622
 20
470.954081511379
 30
0.0
 11
527.1503101646839
 21
470.954081511379
 31
0.0
  0
LINE
  5
7F9
330
1F
100
AcDbEntity
  8
防火材
  6
Continuous
370
    13
100
AcDbLine
 10
522.1222835087622
 20
472.0245606421166
 30
0.0
 11
527.1503101646839
 21
472.0245606421166
 31
0.0
  0
LINE
  5
7FC
330
1F
100
AcDbEntity
  8
防火材
  6
Continuous
370
    13
100
AcDbLine
 10
522.1222835087622
 20
455.9673736810349
 30
0.0
 11
527.1503101646839
 21
455.9673736810349
 31
0.0
  0
LINE
  5
7FD
330
1F
100
AcDbEntity
  8
防火材
  6
Continuous
370
    13
100
AcDbLine
 10
522.1222835087622
 20
457.0378528117737
 30
0.0
 11
527.1503101646839
 21
457.0378528117737
 31
0.0
  0
LINE
  5
7FE
330
1F
100
AcDbEntity
  8
防火材
  6
Continuous
370
    13
100
AcDbLine
 10
522.1222835087622
 20
458.108331942513
 30
0.0
 11
527.1503101646839
 21
458.108331942513
 31
0.0
  0
LINE
  5
7FF
330
1F
100
AcDbEntity
  8
防火材
  6
Continuous
370
    13
100
AcDbLine
 10
522.1222835087622
 20
459.1788110732519
 30
0.0
 11
527.1503101646839
 21
459.1788110732519
 31
0.0
  0
LINE
  5
800
330
1F
100
AcDbEntity
  8
防火材
  6
Continuous
370
    13
100
AcDbLine
 10
522.1222835087622
 20
460.2492902039896
 30
0.0
 11
527.1503101646839
 21
460.2492902039896
 31
0.0
  0
LINE
  5
801
330
1F
100
AcDbEntity
  8
防火材
  6
Continuous
370
    13
100
AcDbLine
 10
522.1222835087622
 20
461.3197693347284
 30
0.0
 11
527.1503101646839
 21
461.3197693347284
 31
0.0
  0
LINE
  5
858
330
1F
100
AcDbEntity
  8
躯体・通線物他
  6
Continuous
370
    13
100
AcDbLine
 10
538.8133367240376
 20
496.056364908231
 30
0.0
 11
561.3761412189355
 21
496.0563649082328
 31
0.0
  0
LINE
  5
85B
330
1F
100
AcDbEntity
  8
躯体・通線物他
  6
Continuous
370
    13
100
AcDbLine
 10
561.3761412189347
 20
480.4133845861483
 30
0.0
 11
538.8133489238499
 21
480.4133845861484
 31
0.0
  0
LINE
  5
86D
330
1F
100
AcDbEntity
  8
防火材
  6
Continuous
370
    13
100
AcDbLine
 10
518.2654260935357
 20
496.0563925945566
 30
0.0
 11
518.2654260935357
 21
501.2661409158975
 31
0.0
  0
LINE
  5
86E
330
1F
100
AcDbEntity
  8
防火材
  6
Continuous
370
    13
100
AcDbLine
 10
513.4042464277984
 20
501.2661409158975
 30
0.0
 11
524.5969672169739
 21
501.2661409158975
 31
0.0
  0
LINE
  5
873
330
1F
100
AcDbEntity
  8
躯体・通線物他
  6
Continuous
370
    13
100
AcDbLine
 10
545.1880031085768
 20
496.056364908231
 30
0.0
 11
552.7627466802784
 21
496.056364908231
 31
0.0
  0
LINE
  5
875
330
1F
100
AcDbEntity
  8
防火材
  6
Continuous
370
    13
100
AcDbLine
 10
522.1222835087622
 20
539.1768867270961
 30
0.0
 11
527.1503101646839
 21
539.1768867270961
 31
0.0
  0
LINE
  5
876
330
1F
100
AcDbEntity
  8
防火材
  6
Continuous
370
    13
100
AcDbLine
 10
522.1222835087622
 20
540.2473658578348
 30
0.0
 11
527.1503101646839
 21
540.2473658578348
 31
0.0
  0
LINE
  5
877
330
1F
100
AcDbEntity
  8
防火材
  6
Continuous
370
    13
100
AcDbLine
 10
522.1222835087622
 20
541.3178449885733
 30
0.0
 11
527.1503101646839
 21
541.3178449885733
 31
0.0
  0
LINE
  5
878
330
1F
100
AcDbEntity
  8
防火材
  6
Continuous
370
    13
100
AcDbLine
 10
522.1222835087622
 20
542.388324119313
 30
0.0
 11
527.1503101646839
 21
542.388324119313
 31
0.0
  0
LINE
  5
879
330
1F
100
AcDbEntity
  8
防火材
  6
Continuous
370
    13
100
AcDbLine
 10
522.1222835087622
 20
543.4588032500514
 30
0.0
 11
527.1503101646839
 21
543.4588032500514
 31
0.0
  0
LINE
  5
87F
330
1F
100
AcDbEntity
  8
防火材
  6
Continuous
370
    13
100
AcDbLine
 10
522.1222835087622
 20
544.5292823807908
 30
0.0
 11
527.1503101646839
 21
544.5292823807908
 31
0.0
  0
LINE
  5
880
330
1F
100
AcDbEntity
  8
防火材
  6
Continuous
370
    13
100
AcDbLine
 10
522.1222835087622
 20
545.5997615115295
 30
0.0
 11
527.1503101646839
 21
545.5997615115295
 31
0.0
  0
LINE
  5
881
330
1F
100
AcDbEntity
  8
防火材
  6
Continuous
370
    13
100
AcDbLine
 10
522.1222835087622
 20
546.6702406422689
 30
0.0
 11
527.1503101646839
 21
546.6702406422689
 31
0.0
  0
LINE
  5
882
330
1F
100
AcDbEntity
  8
防火材
  6
Continuous
370
    13
100
AcDbLine
 10
522.1222835087622
 20
547.7407197730078
 30
0.0
 11
527.1503101646839
 21
547.7407197730078
 31
0.0
  0
LINE
  5
883
330
1F
100
AcDbEntity
  8
防火材
  6
Continuous
370
    13
100
AcDbLine
 10
522.1222835087622
 20
548.8111989037454
 30
0.0
 11
527.1503101646839
 21
548.8111989037454
 31
0.0
  0
LINE
  5
889
330
1F
100
AcDbEntity
  8
防火材
  6
Continuous
370
    13
100
AcDbLine
 10
522.1222835087622
 20
549.8816780344857
 30
0.0
 11
527.1503101646839
 21
549.8816780344857
 31
0.0
  0
DIMENSION
  5
8AC
330
1F
100
AcDbEntity
  8
寸法
  6
Continuous
100
AcDbDimension
280
     0
  2
*D1
 10
538.8133489238499
 20
447.7414724879746
 30
0.0
 11
524.5969794168106
 21
442.9248283757288
 31
0.0
 70
   160
  1
{\fMS PGothic|b0|i0|c128|p50;開口Φ１６０以下}
 71
     5
 42
28.43273901407849
 73
     0
 74
     0
 75
     0
  3
Standard
100
AcDbAlignedDimension
 13
510.3806099097714
 23
455.6403606269865
 33
0.0
 14
538.8133489238499
 24
454.9723921691452
 34
0.0
100
AcDbRotatedDimension
1001
ACAD
1000
DSTYLE
1002
{
1070
    41
1040
2.0
1070
    77
1070
     3
1070
   140
1040
3.0
1070
   147
1040
2.0
1070
   279
1070
     2
1002
}
  0
MULTILEADER
  5
8AD
330
1F
100
AcDbEntity
  8
文字
  6
Continuous
160
               712
310
C8020000190000000C00000016000000000000C00C00000033000000000000000C00000013000000993A0000C80000002600000044AD69497E4581405473C146A4F47F40000000000000000000000000000000000000000000000000000000000000F03F000000000000F03F0000000000000000000000000000000032FF23
310
FFFB3021FF2CFF23FF8A5E00000700000001000000888D3BF4FD6D0A40000000000000F03F0000000000000000000000000000F03F0000000000000000000000000000000000000000000000000000000001000000320000002DFF33FF200030FFB430B730C330AF300000000000000000000000000C000000330000000000
310
00000C00000010000000030000000C00000016000000000000C00C00000012000000000000000C00000013000000010000000C0000001400000001000000540000000700000003000000B395C7737A2681404890940885207F40000000000000000002374E84291E814019D8E3DEE6007F4000000000000000002DF6C6CEE6
310
2081403C9A3A7134247F4000000000000000000C00000014000000010000000C00000013000000891300003C0000000600000002000000F04547A1B02381404295E7BC5C227F400000000000000000BAFB9EB1AE448140B78E2CE111EA7F4000000000000000000C00000013000000122700003C0000000600000002000000
310
BAFB9EB1AE448140B78E2CE111EA7F4000000000000000005040E59CDA478140B78E2CE111EA7F4000000000000000000C00000016000000000000C00C00000012000000000000000C00000017000000000000000C000000130000009A3A00003C00000006000000020000005040E59CDA478140B78E2CE111EA7F40000000
310
0000000000BEA0739AC2068240B78E2CE111EA7F4000000000000000000C00000016000000000000C00C00000012000000000000000C00000017000000FFFFFFFF0C0000003300000000000000
100
AcDbMLeader
270
     2
300
CONTEXT_DATA{
 40
1.0
 10
552.9817445669414
 20
510.6293651333357
 30
0.0
 41
3.303707035128983
140
2.202471356752655
145
0.0991112110538695
174
     5
175
     5
176
     0
177
     0
290
     1
304
ＲＣ・ＡＬＣ床
 11
0.0
 21
0.0
 31
1.0
340
11
 12
553.0808557779953
 22
515.1569454564783
 32
0.0
 13
1.0
 23
0.0
 33
0.0
 42
0.0
 43
28.13027036919043
 44
0.0
 45
1.0
170
     1
 90
-1073741824
171
     1
172
     5
 91
-1073741824
141
0.0
 92
        0
291
     0
292
     0
173
     0
293
     0
142
0.0
143
0.0
294
     0
295
     0
296
     0
110
581.7163677547585
120
451.7278570736254
130
0.0
111
1.0
121
0.0
131
0.0
112
0.0
122
1.0
132
0.0
297
     0
302
LEADER{
290
     1
291
     1
 10
552.5852997227259
 20
510.6293651333357
 30
0.0
 11
1.0
 21
0.0
 31
0.0
 90
        1
 40
0.396444844215478
304
LEADER_LINE{
 10
547.7702718840157
 20
496.0563649082337
 30
0.0
 91
        0
305
}
271
     0
303
}
272
     9
273
     9
301
}
340
12E
 90
 50681344
170
     1
 91
-1056964608
341
14
171
    -2
290
     1
291
     1
 41
0.36
 42
2.0
172
     2
343
11
173
     5
 95
        5
174
     1
175
     2
 92
-1056964608
292
     0
 93
-1056964608
 10
1.0
 20
1.0
 30
1.0
 43
0.0
176
     0
293
     0
294
     0
178
     0
179
     1
 45
1.0
271
     0
272
     9
273
     9
295
     0
  0
MULTILEADER
  5
8AE
330
1F
100
AcDbEntity
  8
文字
  6
Continuous
160
               704
310
C0020000190000000C00000016000000000000C00C00000033000000000000000C00000013000000993A0000C0000000260000002BC45D8839E4804006D66DF0A1BF7C40000000000000000000000000000000000000000000000000000000000000F03F000000000000F03F00000000000000000000000000000000AB8C1A
310
90697200000300000001000000888D3BF4FD6D0A40000000000000F03F0000000000000000000000000000F03F0000000000000000000000000000000000000000000000000000000001000000320000002DFF33FF200030FFB430B730C330AF300000287500006B700000FC300C00000033000000000000000C0000001000
310
0000030000000C00000016000000000000C00C00000012000000000000000C00000013000000010000000C0000001400000001000000540000000700000003000000FD6379A6827980405021F13AF2517D400000000000000000CB28283F686D80403EB47FA2386C7D40000000000000000051E7F3EF1D7D8040381F509837
310
5B7D4000000000000000000C00000014000000010000000C00000013000000891300003C0000000600000002000000A7A5364B507B804044A0A0E994567D400000000000000000234CB00D1DE3804067F1D88A0FB57C4000000000000000000C00000013000000122700003C0000000600000002000000234CB00D1DE38040
310
67F1D88A0FB57C400000000000000000B990F6F848E6804067F1D88A0FB57C4000000000000000000C00000016000000000000C00C00000012000000000000000C00000017000000000000000C000000130000009A3A00003C0000000600000002000000B990F6F848E6804067F1D88A0FB57C40000000000000000084241D
310
71B354814067F1D88A0FB57C4000000000000000000C00000016000000000000C00C00000012000000000000000C00000017000000FFFFFFFF0C0000003300000000000000
100
AcDbMLeader
270
     2
300
CONTEXT_DATA{
 40
1.0
 10
540.7856311095157
 20
459.3162945246062
 30
0.0
 41
3.303707035128983
140
2.202471356752655
145
0.0991112110538695
174
     5
175
     5
176
     0
177
     0
290
     1
304
貫通物
 11
0.0
 21
0.0
 31
1.0
340
11
 12
540.8847423205696
 22
463.8814169731481
 32
0.0
 13
1.0
 23
0.0
 33
0.0
 42
0.0
 43
28.13027036919043
 44
0.0
 45
1.0
170
     1
 90
-1073741824
171
     1
172
     5
 91
-1073741824
141
0.0
 92
        0
291
     0
292
     0
173
     0
293
     0
142
0.0
143
0.0
294
     0
295
     0
296
     0
110
569.0246982420635
120
444.2482198261834
130
0.0
111
1.0
121
0.0
131
0.0
112
0.0
122
1.0
132
0.0
297
     0
302
LEADER{
290
     1
291
     1
 10
540.3891862653003
 20
459.3162945246062
 30
0.0
 11
1.0
 21
0.0
 31
0.0
 90
        1
 40
0.396444844215478
304
LEADER_LINE{
 10
525.6759017121743
 20
470.7638268459739
 30
0.0
 91
        0
305
}
271
     0
303
}
272
     9
273
     9
301
}
340
12E
 90
 50681344
170
     1
 91
-1056964608
341
14
171
    -2
290
     1
291
     1
 41
0.36
 42
2.0
172
     2
343
11
173
     5
 95
        5
174
     1
175
     2
 92
-1056964608
292
     0
 93
-1056964608
 10
1.0
 20
1.0
 30
1.0
 43
0.0
176
     0
293
     0
294
     0
178
     0
179
     1
 45
1.0
271
     0
272
     9
273
     9
295
     0
  0
MULTILEADER
  5
8AF
330
1F
100
AcDbEntity
  8
文字
  6
Continuous
160
               708
310
C4020000190000000C00000016000000000000C00C00000033000000000000000C00000013000000993A0000C40000002600000048BA5F7716547E407D7CD02081A87C40000000000000000000000000000000000000000000000000000000000000F03F000000000000F03F00000000000000000000000000000000E230EB
310
30BF30EB3000003FFF0400000001000000888D3BF4FD6D0A40000000000000F03F0000000000000000000000000000F03F0000000000000000000000000000000000000000000000000000000001000000320000002DFF33FF200030FFB430B730C330AF3000006B700000FC30000000000C00000033000000000000000C00
310
000010000000030000000C00000016000000000000C00C00000012000000000000000C00000013000000010000000C0000001400000001000000540000000700000003000000A440EB17FE098040C20EBE7620F37D4000000000000000008C6AE1FF691480400A5B1D6324107E400000000000000000629B2AD5420F804067
310
668470EFED7D4000000000000000000C00000014000000010000000C00000013000000891300003C000000060000000200000003EE8A76A00C8040953AA1F387F07D400000000000000000882ABCD66D727F40DE973BBBEE9D7C4000000000000000000C00000013000000112700003C0000000600000002000000882ABCD6
310
6D727F40DE973BBBEE9D7C4000000000000000005CA12F00166C7F40DE973BBBEE9D7C4000000000000000000C00000016000000000000C00C00000012000000000000000C00000017000000000000000C000000130000009A3A00003C0000000600000002000000B6CEE3FCFD577E40DE973BBBEE9D7C4000000000000000
310
005CA12F00166C7F40DE973BBBEE9D7C4000000000000000000C00000016000000000000C00C00000012000000000000000C00000017000000FFFFFFFF0C0000003300000000000000
100
AcDbMLeader
270
     2
300
CONTEXT_DATA{
 40
1.0
 10
485.4003975416477
 20
457.8707840278492
 30
0.0
 41
3.303707035128983
140
2.202471356752655
145
0.0991112110538695
174
     5
175
     5
176
     2
177
     0
290
     1
304
{\fMS PGothic|b0|i0|c128|p50;モルタル}
 11
0.0
 21
0.0
 31
1.0
340
11
 12
502.6562600601329
 22
462.3608222255927
 32
0.0
 13
1.0
 23
0.0
 33
0.0
 42
0.0
 43
31.708916867956
 44
0.0
 45
1.0
170
     1
 90
-1073741824
171
     3
172
     5
 91
-1073741824
141
0.0
 92
        0
291
     0
292
     0
173
     0
293
     0
142
0.0
143
0.0
294
     0
295
     0
296
     0
110
512.2954565849043
120
445.1153042540166
130
0.0
111
1.0
121
0.0
131
0.0
112
0.0
122
1.0
132
0.0
297
     0
302
LEADER{
290
     1
291
     1
 10
503.1518161154021
 20
457.8707840278492
 30
0.0
 11
-1.0
 21
0.0
 31
0.0
 90
        0
 40
0.396444844215478
304
LEADER_LINE{
 10
514.5517575846329
 20
481.0088835856155
 30
0.0
 91
        0
305
}
271
     0
303
}
272
     9
273
     9
301
}
340
12E
 90
 50681344
170
     1
 91
-1056964608
341
14
171
    -2
290
     1
291
     1
 41
0.36
 42
2.0
172
     2
343
11
173
     5
 95
        5
174
     1
175
     2
 92
-1056964608
292
     0
 93
-1056964608
 10
1.0
 20
1.0
 30
1.0
 43
0.0
176
     0
293
     0
294
     0
178
     0
179
     3
 45
1.0
271
     0
272
     9
273
     9
295
     0
  0
DIMENSION
  5
8B0
330
1F
100
AcDbEntity
  8
寸法
  6
Continuous
100
AcDbDimension
280
     0
  2
*D2
 10
568.8613603401936
 20
480.4133845861485
 30
0.0
 11
575.4222975299191
 21
488.2348747471907
 31
0.0
 70
   160
  1
{\fMS PGothic|b0|i0|c128|p50;ＲＣ７５以上\PＡＬＣ１００以上}
 71
     5
 42
15.6429803220854
 73
     0
 74
     0
 75
     0
 53
90.0
  3
Standard
100
AcDbAlignedDimension
 13
564.3225746880623
 23
496.0563649082337
 33
0.0
 14
564.3225746880623
 24
480.4133845861484
 34
0.0
 50
270.0
100
AcDbRotatedDimension
1001
ACAD
1000
DSTYLE
1002
{
1070
    41
1040
2.0
1070
    42
1040
0.0
1070
    77
1070
     1
1070
   140
1040
3.0
1070
   147
1040
1.0
1070
   279
1070
     2
1002
}
  0
ARC
  5
8B1
330
1F
100
AcDbEntity
  8
躯体・通線物他
100
AcDbCircle
 10
556.1381765937262
 20
492.1456198277133
 30
0.0
 40
6.536834134330695
100
AcDbArc
 50
323.2544148403512
 51
36.74558515962742
  0
ARC
  5
8B2
330
1F
100
AcDbEntity
  8
躯体・通線物他
100
AcDbCircle
 10
568.3065142060461
 20
484.3241296666708
 30
0.0
 40
7.957637640990856
100
AcDbArc
 50
150.5643666166523
 51
209.435633383365
  0
ARC
  5
8B3
330
1F
100
AcDbEntity
  8
躯体・通線物他
100
AcDbCircle
 10
485.1336875456659
 20
492.1456198277104
 30
0.0
 40
6.536834134330695
100
AcDbArc
 50
323.2544148403512
 51
36.74558515962742
  0
ARC
  5
8B4
330
1F
100
AcDbEntity
  8
躯体・通線物他
100
AcDbCircle
 10
497.3020251579856
 20
484.324129666668
 30
0.0
 40
7.957637640990856
100
AcDbArc
 50
150.5643666166523
 51
209.435633383365
  0
MULTILEADER
  5
8B5
330
1F
100
AcDbEntity
  8
文字
  6
Continuous
160
               712
310
C8020000190000000C00000016000000000000C00C00000033000000000000000C00000013000000993A0000C8000000260000005207B7DA7A4F7E40003B022910F27F40000000000000000000000000000000000000000000000000000000000000F03F000000000000F03F00000000000000000000000000000000B171A8
310
81355FB730FC30C830000000000600000001000000888D3BF4FD6D0A40000000000000F03F0000000000000000000000000000F03F0000000000000000000000000000000000000000000000000000000001000000320000002DFF33FF200030FFB430B730C330AF300000FC3000000000000000000C000000330000000000
310
00000C00000010000000030000000C00000016000000000000C00C00000012000000000000000C00000013000000010000000C0000001400000001000000540000000700000003000000DDB56142492A8040D2F250985C747F400000000000000000ED39B7971F328040851EFA1C42547F4000000000000000004E5CA4FB80
310
258040EC7C83F28A6D7F4000000000000000000C00000014000000010000000C00000013000000891300003C00000006000000020000001509031FE5278040DF376AC5F3707F400000000000000000AFAA4EA947FB7F4063566DC37DE77F4000000000000000000C00000013000000112700003C0000000600000002000000
310
AFAA4EA947FB7F4063566DC37DE77F4000000000000000008321C2D2EFF47F4063566DC37DE77F4000000000000000000C00000016000000000000C00C00000012000000000000000C00000017000000000000000C000000130000009A3A00003C0000000600000002000000BC35C6EB95547E4063566DC37DE77F40000000
310
00000000008321C2D2EFF47F4063566DC37DE77F4000000000000000000C00000016000000000000C00C00000012000000000000000C00000017000000FFFFFFFF0C0000003300000000000000
100
AcDbMLeader
270
     2
300
CONTEXT_DATA{
 40
1.0
 10
485.1874905939249
 20
510.4682039519304
 30
0.0
 41
3.303707035128983
140
2.202471356752655
145
0.0991112110538695
174
     5
175
     5
176
     2
177
     0
290
     1
304
{\fMS PGothic|b0|i0|c128|p50;熱膨張シート}
 11
0.0
 21
0.0
 31
1.0
340
11
 12
511.2094393931215
 22
514.995784275073
 32
0.0
 13
1.0
 23
0.0
 33
0.0
 42
0.0
 43
31.708916867956
 44
0.0
 45
1.0
170
     1
 90
-1073741824
171
     3
172
     5
 91
-1073741824
141
0.0
 92
        0
291
     0
292
     0
173
     0
293
     0
142
0.0
143
0.0
294
     0
295
     0
296
     0
110
511.0744629848312
120
508.55951490859
130
0.0
111
1.0
121
0.0
131
0.0
112
0.0
122
1.0
132
0.0
297
     0
302
LEADER{
290
     1
291
     1
 10
511.7049954483909
 20
510.4682039519304
 30
0.0
 11
-1.0
 21
0.0
 31
0.0
 90
        0
 40
0.396444844215478
304
LEADER_LINE{
 10
518.2654260935357
 20
501.2661409158975
 30
0.0
 91
        0
305
}
271
     0
303
}
272
     9
273
     9
301
}
340
12E
 90
 50681344
170
     1
 91
-1056964608
341
14
171
    -2
290
     1
291
     1
 41
0.36
 42
2.0
172
     2
343
11
173
     5
 95
        5
174
     1
175
     2
 92
-1056964608
292
     0
 93
-1056964608
 10
1.0
 20
1.0
 30
1.0
 43
0.0
176
     0
293
     0
294
     0
178
     0
179
     3
 45
1.0
271
     0
272
     9
273
     9
295
     0
  0
MTEXT
  5
932
330
1F
100
AcDbEntity
  8
文字
  6
Continuous
370
    13
100
AcDbMText
 10
486.630061144453
 20
351.3775041819721
 30
0.0
 40
2.0
 41
30.73155332927162
 46
0.0
 71
     1
 72
     5
  1
施工方法
 73
     1
 44
0.75
101
Embedded Object
 70
     1
 10
1.0
 20
0.0
 30
0.0
 11
486.630061144453
 21
351.3775041819721
 31
0.0
 40
30.73155332927162
 41
0.0
 42
11.31818181818182
 43
2.636363636363636
 71
     2
 72
     1
 44
30.73155332927162
 45
0.8849620939533352
 73
     0
 74
     0
 46
2.580461047574065
  0
MTEXT
  5
934
330
1F
100
AcDbEntity
  8
文字
  6
Continuous
370
    13
100
AcDbMText
 10
516.9568813211222
 20
351.3775041819717
 30
0.0
 40
2.0
 41
78.87844704124747
 46
0.0
 71
     1
 72
     5
  1
{\fMS PGothic|b0|i0|c128|p50;１　合成樹脂製可とう電線管がコンクリートに埋め込まれている\P　　あるいはモルタルで埋め戻されていることを確認する。\P　　※モルタル埋設の場合、電線管の外径と開口径の組合せが\P　　左表の通りになっていることを確認すること。\P\P２　熱膨張シートを半分に折り曲げ、シートの余長分を重ね合わ\P　　せながら床面と隙間が生じないように巻き付けて施工完了。}
 73
     1
 44
1.05
101
Embedded Object
 70
     1
 10
1.0
 20
0.0
 30
0.0
 11
516.9568813211222
 21
351.3775041819717
 31
0.0
 40
78.87844704124747
 41
0.0
 42
76.79545454545454
 43
25.79431818181819
 71
     2
 72
     1
 44
78.87844704124747
 45
0.8849620939533352
 73
     0
 74
     0
 46
51.85900217785794
  0
LINE
  5
98F
330
1F
100
AcDbEntity
  8
躯体・通線物他
100
AcDbLine
 10
510.3805977099347
 20
496.0563925945566
 30
0.0
 11
538.8133367240132
 21
496.0563925945566
 31
0.0
  0
ARC
  5
999
330
1F
100
AcDbEntity
  8
防火材
  6
Continuous
370
    13
100
AcDbCircle
 10
523.3792901727158
 20
455.5968235629603
 30
0.0
 40
1.438737771821279
100
AcDbArc
 50
209.1100242203975
 51
330.889975782092
  0
ARC
  5
99A
330
1F
100
AcDbEntity
  8
防火材
  6
Continuous
370
    13
100
AcDbCircle
 10
523.3792901727516
 20
453.8981240976502
 30
0.0
 40
1.605493123745212
100
AcDbArc
 50
38.46933945025592
 51
141.5306605522405
  0
ARC
  5
99B
330
1F
100
AcDbEntity
  8
防火材
  6
Continuous
370
    13
100
AcDbCircle
 10
525.8933035007035
 20
455.5248378775289
 30
0.0
 40
1.405125821948692
100
AcDbArc
 50
206.5446270202307
 51
333.4553729797688
  0
LINE
  5
9D4
330
1F
100
AcDbEntity
  8
躯体・通線物他
100
AcDbLine
 10
510.3806099097714
 20
480.4133845861484
 30
0.0
 11
522.1222835087622
 21
480.4133845861484
 31
0.0
  0
HATCH
  5
9F2
330
1F
100
AcDbEntity
  8
躯体・通線物他
100
AcDbHatch
 10
0.0
 20
0.0
 30
0.0
210
0.0
220
0.0
230
1.0
  2
AR-SAND
 70
     0
 71
     0
 91
        2
 92
        7
 72
     0
 73
     1
 93
        6
 10
510.3805977099345
 20
480.4133845861484
 10
522.1222835087622
 20
480.4133845861484
 10
522.1222835087622
 20
494.1606193043094
 10
522.1222835087626
 20
494.2722728566298
 10
522.1222835087624
 20
496.0563925945566
 10
510.3805977099345
 20
496.0563925945566
 97
        0
 92
        7
 72
     0
 73
     1
 93
        6
 10
527.1503101646839
 20
480.4133845861484
 10
538.8133489238499
 20
480.4133845861484
 10
538.813336724016
 20
496.0563925945566
 10
527.1503101646839
 20
496.0563925945566
 10
527.1503101646839
 20
494.2722728566298
 10
527.1503101646839
 20
494.1606193043094
 97
        0
 75
     1
 76
     1
 52
0.0
 41
0.04
 77
     0
 78
     4
 53
37.5
 43
-50.46005390171171
 44
14.49954973520738
 45
-0.0640012518393618
 46
1.957652949317369
 79
     6
 49
0.0
 49
-1.54432
 49
0.0
 49
-1.7272
 49
0.0
 49
-1.650999999999999
 53
7.499999999999999
 43
-50.46005390171171
 44
14.49954973520738
 45
1.79809313255201
 46
2.867300402273416
 79
     6
 49
0.0
 49
-0.83312
 49
0.0
 49
-1.39192
 49
0.0
 49
-0.5334000000000002
 53
327.5
 43
-51.70973390171171
 44
14.49954973520738
 45
3.163969480965831
 46
0.005748738714183
 79
     6
 49
0.0
 49
-0.508
 49
0.0
 49
-1.8288
 49
0.0
 49
-2.387599999999999
 53
317.5
 43
-51.70973390171171
 44
14.49954973520738
 45
3.054225809889188
 46
0.8917172930288652
 79
     6
 49
0.0
 49
-0.254
 49
0.0
 49
-1.198879999999999
 49
0.0
 49
-1.371599999999999
 47
0.1461512309092578
 98
        2
 10
514.1858987601647
 20
489.4474662412834
 10
531.3035271463165
 20
491.6397349294339
1001
GradientColor1ACI
1070
     5
1001
GradientColor2ACI
1070
     2
1001
ACAD
1010
0.0
1020
0.0
1030
0.0
  0
LINE
  5
9F5
330
1F
100
AcDbEntity
  8
防火材
  6
Continuous
370
    13
100
AcDbLine
 10
513.4042464277984
 20
496.0563925945566
 30
0.0
 11
513.4042464277984
 21
501.2661409158975
 31
0.0
  0
LINE
  5
9F6
330
1F
100
AcDbEntity
  8
防火材
  6
Continuous
370
    13
100
AcDbLine
 10
530.9285083404123
 20
496.0563925945566
 30
0.0
 11
530.9285083404123
 21
501.2661409158975
 31
0.0
  0
LINE
  5
9F7
330
1F
100
AcDbEntity
  8
防火材
  6
Continuous
370
    13
100
AcDbLine
 10
535.7896880061495
 20
501.2661409158975
 30
0.0
 11
524.5969672169739
 21
501.2661409158975
 31
0.0
  0
LINE
  5
9F8
330
1F
100
AcDbEntity
  8
防火材
  6
Continuous
370
    13
100
AcDbLine
 10
535.7896880061495
 20
496.0563925945566
 30
0.0
 11
535.7896880061495
 21
501.2661409158975
 31
0.0
  0
HATCH
  5
A3F
330
1F
100
AcDbEntity
  8
防火材
370
    13
100
AcDbHatch
 10
0.0
 20
0.0
 30
0.0
210
0.0
220
0.0
230
1.0
  2
DOTS
 70
     0
 71
     0
 91
       10
 92
        7
 72
     0
 73
     1
 93
        4
 10
518.2654260935357
 20
501.2661409158975
 10
513.4042464277984
 20
501.2661409158975
 10
513.4042464277984
 20
496.0563925945566
 10
518.2654260935357
 20
496.0563925945566
 97
        0
 92
        7
 72
     0
 73
     1
 93
        6
 10
527.1503101646839
 20
499.0084633047291
 10
527.1503101646839
 20
499.6246685103245
 10
522.1222835087626
 20
499.6246685103245
 10
522.1222835087626
 20
499.0084633047291
 10
522.1222835087626
 20
498.554189379586
 10
527.1503101646839
 20
498.554189379586
 97
        0
 92
        7
 72
     0
 73
     1
 93
        6
 10
522.1222835087622
 20
499.0084633047291
 10
522.1222835087626
 20
499.6246685103245
 10
522.1222835087626
 20
501.2661409158975
 10
518.2654260935357
 20
501.2661409158975
 10
518.2654260935357
 20
496.0563925945566
 10
522.1222835087623
 20
496.0563925945566
 97
        0
 92
        7
 72
     0
 73
     1
 93
        5
 10
530.9285083404123
 20
501.2661409158975
 10
527.1503101646839
 20
501.2661409158975
 10
527.1503101646839
 20
499.0084633047291
 10
527.1503101646839
 20
496.0563925945566
 10
530.9285083404123
 20
496.0563925945566
 97
        0
 92
        7
 72
     0
 73
     1
 93
        4
 10
535.7896880061495
 20
501.2661409158975
 10
530.9285083404123
 20
501.2661409158975
 10
530.9285083404123
 20
496.0563925945566
 10
535.7896880061495
 20
496.0563925945566
 97
        0
 92
        7
 72
     0
 73
     1
 93
        4
 10
527.1503101646839
 20
500.6951476410637
 10
522.1222835087626
 20
500.6951476410637
 10
522.1222835087626
 20
499.6246685103245
 10
527.1503101646839
 20
499.6246685103245
 97
        0
 92
        7
 72
     0
 73
     1
 93
        5
 10
527.1503101646839
 20
501.2661409158975
 10
524.5969672169739
 20
501.2661409158975
 10
522.1222835087626
 20
501.2661409158975
 10
522.1222835087626
 20
500.6951476410637
 10
527.1503101646839
 20
500.6951476410637
 97
        0
 92
        7
 72
     0
 73
     1
 93
        4
 10
527.1503101646839
 20
498.554189379586
 10
522.1222835087622
 20
498.554189379586
 10
522.1222835087623
 20
497.4837102488469
 10
527.1503101646839
 20
497.4837102488469
 97
        0
 92
        7
 72
     0
 73
     1
 93
        4
 10
527.1503101646839
 20
497.4837102488469
 10
522.1222835087623
 20
497.4837102488469
 10
522.1222835087623
 20
496.4132311181079
 10
527.1503101646839
 20
496.4132311181079
 97
        0
 92
        7
 72
     0
 73
     1
 93
        4
 10
527.1503101646839
 20
496.4132311181079
 10
522.1222835087623
 20
496.4132311181079
 10
522.1222835087623
 20
496.0563925945566
 10
527.1503101646839
 20
496.0563925945566
 97
        0
 75
     1
 76
     1
 52
0.0
 41
0.35
 77
     0
 78
     1
 53
0.0
 43
-50.46005390171171
 44
14.49954973520738
 45
0.2778125
 46
0.555625
 79
     2
 49
0.0
 49
-0.555625
 47
0.0373166342895481
 98
       10
 10
516.6705007109819
 20
499.0837282536595
 10
522.4790902959839
 20
498.6081132082418
 10
520.8603035631536
 20
498.8934819472427
 10
528.002012446849
 20
499.3690969926604
 10
532.4774842685087
 20
498.5129900550332
 10
524.6427086656146
 20
500.202727652467
 10
524.6053535722439
 20
500.9863765183225
 10
524.1570832396883
 20
497.8890957115803
 10
523.9329496087618
 20
496.8069137385541
 10
524.0450164242251
 20
496.2471643427648
1001
GradientColor1ACI
1070
     5
1001
GradientColor2ACI
1070
     2
1001
ACAD
1010
0.0
1020
0.0
1030
0.0
  0
LINE
  5
A40
330
1F
100
AcDbEntity
  8
防火材
  6
HIDDEN2
 48
0.3
370
    13
100
AcDbLine
 10
522.1222835087626
 20
501.2661409158975
 30
0.0
 11
522.1222835087624
 21
496.0563925945566
 31
0.0
  0
LINE
  5
A41
330
1F
100
AcDbEntity
  8
防火材
  6
HIDDEN2
 48
0.3
370
    13
100
AcDbLine
 10
527.1503101646839
 20
501.2661409158975
 30
0.0
 11
527.1503101646839
 21
496.0563925945566
 31
0.0
  0
LINE
  5
A7C
330
1F
100
AcDbEntity
  8
躯体・通線物他
  6
Continuous
370
    13
100
AcDbLine
 10
657.9735524475536
 20
496.056364908231
 30
0.0
 11
642.330572125463
 21
480.4133845861484
 31
0.0
  0
LINE
  5
A7D
330
1F
100
AcDbEntity
  8
躯体・通線物他
  6
Continuous
370
    13
100
AcDbLine
 10
656.4092544153449
 20
496.0563649082337
 30
0.0
 11
640.7662740932546
 21
480.4133845861484
 31
0.0
  0
LINE
  5
A7E
330
1F
100
AcDbEntity
  8
躯体・通線物他
  6
Continuous
370
    13
100
AcDbLine
 10
659.537850479762
 20
496.0563649082337
 30
0.0
 11
643.8948701576716
 21
480.4133845861484
 31
0.0
  0
LINE
  5
A7F
330
1F
100
AcDbEntity
  8
躯体・通線物他
  6
Continuous
370
    13
100
AcDbLine
 10
604.2275959684557
 20
496.0564534737669
 30
0.0
 11
590.0364521202528
 21
481.865347426628
 31
0.0
  0
LINE
  5
A80
330
1F
100
AcDbEntity
  8
躯体・通線物他
  6
Continuous
370
    13
100
AcDbLine
 10
607.3561920328696
 20
496.0564493069281
 30
0.0
 11
591.7130856434188
 21
480.4133845861456
 31
0.0
  0
LINE
  5
A81
330
1F
100
AcDbEntity
  8
躯体・通線物他
  6
Continuous
370
    13
100
AcDbLine
 10
605.7918940006628
 20
496.0564513903475
 30
0.0
 11
590.4917095520573
 21
480.7563076969662
 31
0.0
  0
LINE
  5
A82
330
1F
100
AcDbEntity
  8
躯体・通線物他
  6
Continuous
370
    13
100
AcDbLine
 10
590.6743277232301
 20
496.056364908231
 30
0.0
 11
610.6832732622904
 21
496.056364908231
 31
0.0
  0
LINE
  5
A85
330
1F
100
AcDbEntity
  8
躯体・通線物他
  6
Continuous
370
    13
100
AcDbLine
 10
610.6832732622904
 20
480.4133845861455
 30
0.0
 11
590.6743277232301
 21
480.4133845861455
 31
0.0
  0
LINE
  5
A87
330
1F
100
AcDbEntity
  8
防火材
  6
Continuous
370
    13
100
AcDbLine
 10
622.4249590611179
 20
454.8968945502446
 30
0.0
 11
622.4249590611179
 21
494.1606193043094
 31
0.0
  0
LINE
  5
A88
330
1F
100
AcDbEntity
  8
防火材
  6
Continuous
370
    13
100
AcDbLine
 10
622.4249590611184
 20
494.1606193043094
 30
0.0
 11
622.4249590611184
 21
494.2722728566298
 31
0.0
  0
HATCH
  5
A89
330
1F
100
AcDbEntity
  8
防火材
370
    13
100
AcDbHatch
 10
0.0
 20
0.0
 30
0.0
210
0.0
220
0.0
230
1.0
  2
DOTS
 70
     0
 71
     0
 91
       10
 92
        7
 72
     0
 73
     1
 93
        4
 10
618.5681016458914
 20
501.2661409158975
 10
613.7069219801543
 20
501.2661409158975
 10
613.7069219801543
 20
496.0563925945566
 10
618.5681016458914
 20
496.0563925945566
 97
        0
 92
        7
 72
     0
 73
     1
 93
        6
 10
627.4529857170397
 20
499.0084633047291
 10
627.4529857170397
 20
499.6246685103245
 10
622.4249590611184
 20
499.6246685103245
 10
622.4249590611184
 20
499.0084633047291
 10
622.4249590611184
 20
498.554189379586
 10
627.4529857170397
 20
498.554189379586
 97
        0
 92
        7
 72
     0
 73
     1
 93
        6
 10
622.4249590611179
 20
499.0084633047291
 10
622.4249590611184
 20
499.6246685103245
 10
622.4249590611184
 20
501.2661409158975
 10
618.5681016458914
 20
501.2661409158975
 10
618.5681016458914
 20
496.0563925945566
 10
622.4249590611182
 20
496.0563925945566
 97
        0
 92
        7
 72
     0
 73
     1
 93
        5
 10
631.2311838927682
 20
501.2661409158975
 10
627.4529857170397
 20
501.2661409158975
 10
627.4529857170397
 20
499.0084633047291
 10
627.4529857170397
 20
496.0563925945566
 10
631.2311838927682
 20
496.0563925945566
 97
        0
 92
        7
 72
     0
 73
     1
 93
        4
 10
636.0923635585053
 20
501.2661409158975
 10
631.2311838927682
 20
501.2661409158975
 10
631.2311838927682
 20
496.0563925945566
 10
636.0923635585053
 20
496.0563925945566
 97
        0
 92
        7
 72
     0
 73
     1
 93
        4
 10
627.4529857170397
 20
500.6951476410637
 10
622.4249590611184
 20
500.6951476410637
 10
622.4249590611184
 20
499.6246685103245
 10
627.4529857170397
 20
499.6246685103245
 97
        0
 92
        7
 72
     0
 73
     1
 93
        5
 10
627.4529857170397
 20
501.2661409158975
 10
624.8996427693298
 20
501.2661409158975
 10
622.4249590611184
 20
501.2661409158975
 10
622.4249590611184
 20
500.6951476410637
 10
627.4529857170397
 20
500.6951476410637
 97
        0
 92
        7
 72
     0
 73
     1
 93
        4
 10
627.4529857170397
 20
498.554189379586
 10
622.4249590611179
 20
498.554189379586
 10
622.424959061118
 20
497.4837102488469
 10
627.4529857170397
 20
497.4837102488469
 97
        0
 92
        7
 72
     0
 73
     1
 93
        4
 10
627.4529857170397
 20
497.4837102488469
 10
622.424959061118
 20
497.4837102488469
 10
622.4249590611182
 20
496.4132311181079
 10
627.4529857170397
 20
496.4132311181079
 97
        0
 92
        7
 72
     0
 73
     1
 93
        4
 10
627.4529857170397
 20
496.4132311181079
 10
622.4249590611182
 20
496.4132311181079
 10
622.4249590611182
 20
496.0563925945566
 10
627.4529857170397
 20
496.0563925945566
 97
        0
 75
     1
 76
     1
 52
0.0
 41
0.35
 77
     0
 78
     1
 53
0.0
 43
49.84262165064411
 44
14.49954973520738
 45
0.2778125
 46
0.555625
 79
     2
 49
0.0
 49
-0.555625
 47
0.0373166342895481
 98
       10
 10
616.9731762633378
 20
499.0837282536595
 10
622.7817658483397
 20
498.6081132082418
 10
621.1629791155094
 20
498.8934819472427
 10
628.3046879992048
 20
499.3690969926604
 10
632.7801598208646
 20
498.5129900550332
 10
624.9453842179705
 20
500.202727652467
 10
624.9080291245998
 20
500.9863765183225
 10
624.459758792044
 20
497.8890957115803
 10
624.2356251611177
 20
496.8069137385541
 10
624.347691976581
 20
496.2471643427648
1001
GradientColor1ACI
1070
     5
1001
GradientColor2ACI
1070
     2
1001
ACAD
1010
0.0
1020
0.0
1030
0.0
  0
LINE
  5
A8A
330
1F
100
AcDbEntity
  8
防火材
  6
Continuous
 48
0.1
370
    13
100
AcDbLine
 10
622.4249590611184
 20
494.2722728566298
 30
0.0
 11
622.4249590611183
 21
496.0563925945566
 31
0.0
  0
LINE
  5
A8B
330
1F
100
AcDbEntity
  8
防火材
  6
Continuous
370
    13
100
AcDbLine
 10
622.4249590611184
 20
501.2661409158975
 30
0.0
 11
622.4249590611179
 21
551.7172475833519
 31
0.0
  0
ARC
  5
A8C
330
1F
100
AcDbEntity
  8
防火材
  6
Continuous
370
    13
100
AcDbCircle
 10
623.6819657250716
 20
551.017318570688
 30
0.0
 40
1.438737771821279
100
AcDbArc
 50
29.11002421790928
 51
150.8899757796024
  0
ARC
  5
A8D
330
1F
100
AcDbEntity
  8
防火材
  6
Continuous
370
    13
100
AcDbCircle
 10
623.6819657251075
 20
552.7160180359981
 30
0.0
 40
1.605493123745212
100
AcDbArc
 50
218.469339447759
 51
321.5306605497435
  0
ARC
  5
A8E
330
1F
100
AcDbEntity
  8
防火材
  6
Continuous
370
    13
100
AcDbCircle
 10
626.1959790530593
 20
551.0893042561194
 30
0.0
 40
1.405125821948692
100
AcDbArc
 50
26.54462702023256
 51
153.4553729797674
  0
LINE
  5
A8F
330
1F
100
AcDbEntity
  8
防火材
  6
Continuous
370
    13
100
AcDbLine
 10
627.4529857170397
 20
454.8968945502964
 30
0.0
 11
627.4529857170397
 21
494.1606193043094
 31
0.0
  0
LINE
  5
A90
330
1F
100
AcDbEntity
  8
防火材
  6
Continuous
370
    13
100
AcDbLine
 10
627.4529857170397
 20
494.1606193043094
 30
0.0
 11
627.4529857170397
 21
494.2722728566298
 31
0.0
  0
LINE
  5
A91
330
1F
100
AcDbEntity
  8
防火材
  6
Continuous
 48
0.1
370
    13
100
AcDbLine
 10
627.4529857170397
 20
494.2722728566298
 30
0.0
 11
627.4529857170397
 21
496.0563925945566
 31
0.0
  0
LINE
  5
A92
330
1F
100
AcDbEntity
  8
防火材
  6
Continuous
370
    13
100
AcDbLine
 10
627.4529857170397
 20
501.2661409158975
 30
0.0
 11
627.4529857170397
 21
551.7172475833519
 31
0.0
  0
LINE
  5
A93
330
1F
100
AcDbEntity
  8
防火材
  6
Continuous
370
    13
100
AcDbLine
 10
622.4249590611179
 20
511.3999389484523
 30
0.0
 11
627.4529857170397
 21
511.3999389484523
 31
0.0
  0
LINE
  5
A94
330
1F
100
AcDbEntity
  8
防火材
  6
Continuous
370
    13
100
AcDbLine
 10
622.4249590611179
 20
512.4704180791911
 30
0.0
 11
627.4529857170397
 21
512.4704180791911
 31
0.0
  0
LINE
  5
A95
330
1F
100
AcDbEntity
  8
防火材
  6
Continuous
370
    13
100
AcDbLine
 10
622.4249590611179
 20
513.5408972099301
 30
0.0
 11
627.4529857170397
 21
513.5408972099301
 31
0.0
  0
LINE
  5
A96
330
1F
100
AcDbEntity
  8
防火材
  6
Continuous
370
    13
100
AcDbLine
 10
622.4249590611179
 20
514.6113763406693
 30
0.0
 11
627.4529857170397
 21
514.6113763406693
 31
0.0
  0
LINE
  5
A97
330
1F
100
AcDbEntity
  8
防火材
  6
Continuous
370
    13
100
AcDbLine
 10
622.4249590611179
 20
515.6818554714079
 30
0.0
 11
627.4529857170397
 21
515.6818554714079
 31
0.0
  0
LINE
  5
A98
330
1F
100
AcDbEntity
  8
防火材
  6
Continuous
370
    13
100
AcDbLine
 10
622.4249590611179
 20
516.7523346021455
 30
0.0
 11
627.4529857170397
 21
516.7523346021455
 31
0.0
  0
LINE
  5
A99
330
1F
100
AcDbEntity
  8
防火材
  6
Continuous
370
    13
100
AcDbLine
 10
622.4249590611179
 20
517.8228137328849
 30
0.0
 11
627.4529857170397
 21
517.8228137328849
 31
0.0
  0
LINE
  5
A9A
330
1F
100
AcDbEntity
  8
防火材
  6
Continuous
370
    13
100
AcDbLine
 10
622.4249590611179
 20
518.8932928636236
 30
0.0
 11
627.4529857170397
 21
518.8932928636236
 31
0.0
  0
LINE
  5
A9B
330
1F
100
AcDbEntity
  8
防火材
  6
Continuous
370
    13
100
AcDbLine
 10
622.4249590611179
 20
519.9637719943641
 30
0.0
 11
627.4529857170397
 21
519.9637719943641
 31
0.0
  0
LINE
  5
A9C
330
1F
100
AcDbEntity
  8
防火材
  6
Continuous
370
    13
100
AcDbLine
 10
622.4249590611179
 20
521.0342511251017
 30
0.0
 11
627.4529857170397
 21
521.0342511251017
 31
0.0
  0
LINE
  5
A9D
330
1F
100
AcDbEntity
  8
防火材
  6
Continuous
370
    13
100
AcDbLine
 10
622.4249590611179
 20
522.1047302558406
 30
0.0
 11
627.4529857170397
 21
522.1047302558406
 31
0.0
  0
LINE
  5
A9E
330
1F
100
AcDbEntity
  8
防火材
  6
Continuous
370
    13
100
AcDbLine
 10
622.4249590611179
 20
523.1752093865797
 30
0.0
 11
627.4529857170397
 21
523.1752093865797
 31
0.0
  0
LINE
  5
A9F
330
1F
100
AcDbEntity
  8
防火材
  6
Continuous
370
    13
100
AcDbLine
 10
622.4249590611179
 20
524.159190447872
 30
0.0
 11
627.4529857170397
 21
524.159190447872
 31
0.0
  0
LINE
  5
AA0
330
1F
100
AcDbEntity
  8
防火材
  6
Continuous
370
    13
100
AcDbLine
 10
622.4249590611179
 20
525.2606580274901
 30
0.0
 11
627.4529857170397
 21
525.2606580274901
 31
0.0
  0
LINE
  5
AA1
330
1F
100
AcDbEntity
  8
防火材
  6
Continuous
370
    13
100
AcDbLine
 10
622.4249590611179
 20
526.3311371582297
 30
0.0
 11
627.4529857170397
 21
526.3311371582297
 31
0.0
  0
LINE
  5
AA2
330
1F
100
AcDbEntity
  8
防火材
  6
Continuous
370
    13
100
AcDbLine
 10
622.4249590611179
 20
527.4016162889684
 30
0.0
 11
627.4529857170397
 21
527.4016162889684
 31
0.0
  0
LINE
  5
AA3
330
1F
100
AcDbEntity
  8
防火材
  6
Continuous
370
    13
100
AcDbLine
 10
622.4249590611179
 20
528.4720954197076
 30
0.0
 11
627.4529857170397
 21
528.4720954197076
 31
0.0
  0
LINE
  5
AA4
330
1F
100
AcDbEntity
  8
防火材
  6
Continuous
370
    13
100
AcDbLine
 10
622.4249590611179
 20
529.5425745504465
 30
0.0
 11
627.4529857170397
 21
529.5425745504465
 31
0.0
  0
LINE
  5
AA5
330
1F
100
AcDbEntity
  8
防火材
  6
Continuous
370
    13
100
AcDbLine
 10
622.4249590611179
 20
530.6130536811856
 30
0.0
 11
627.4529857170397
 21
530.6130536811856
 31
0.0
  0
LINE
  5
AA6
330
1F
100
AcDbEntity
  8
防火材
  6
Continuous
370
    13
100
AcDbLine
 10
622.4249590611179
 20
531.6835328119229
 30
0.0
 11
627.4529857170397
 21
531.6835328119229
 31
0.0
  0
LINE
  5
AA7
330
1F
100
AcDbEntity
  8
防火材
  6
Continuous
370
    13
100
AcDbLine
 10
622.4249590611179
 20
532.7540119426621
 30
0.0
 11
627.4529857170397
 21
532.7540119426621
 31
0.0
  0
LINE
  5
AA8
330
1F
100
AcDbEntity
  8
防火材
  6
Continuous
370
    13
100
AcDbLine
 10
622.4249590611179
 20
533.8244910734005
 30
0.0
 11
627.4529857170397
 21
533.8244910734005
 31
0.0
  0
LINE
  5
AA9
330
1F
100
AcDbEntity
  8
防火材
  6
Continuous
370
    13
100
AcDbLine
 10
622.4249590611179
 20
534.8949702041402
 30
0.0
 11
627.4529857170397
 21
534.8949702041402
 31
0.0
  0
LINE
  5
AAA
330
1F
100
AcDbEntity
  8
防火材
  6
Continuous
370
    13
100
AcDbLine
 10
622.4249590611179
 20
535.9654493348787
 30
0.0
 11
627.4529857170397
 21
535.9654493348787
 31
0.0
  0
LINE
  5
AAB
330
1F
100
AcDbEntity
  8
防火材
  6
Continuous
370
    13
100
AcDbLine
 10
622.4249590611179
 20
537.035928465618
 30
0.0
 11
627.4529857170397
 21
537.035928465618
 31
0.0
  0
LINE
  5
AAC
330
1F
100
AcDbEntity
  8
防火材
  6
Continuous
370
    13
100
AcDbLine
 10
622.4249590611179
 20
538.1064075963568
 30
0.0
 11
627.4529857170397
 21
538.1064075963568
 31
0.0
  0
LINE
  5
AAD
330
1F
100
AcDbEntity
  8
防火材
  6
Continuous
370
    13
100
AcDbLine
 10
622.4249590611179
 20
550.6467684526135
 30
0.0
 11
627.4529857170397
 21
550.6467684526135
 31
0.0
  0
LINE
  5
AAE
330
1F
100
AcDbEntity
  8
防火材
  6
HIDDEN2
 48
0.3
370
    13
100
AcDbLine
 10
622.4249590611179
 20
500.6951476410637
 30
0.0
 11
627.4529857170397
 21
500.6951476410637
 31
0.0
  0
LINE
  5
AAF
330
1F
100
AcDbEntity
  8
防火材
  6
Continuous
370
    13
100
AcDbLine
 10
622.4249590611179
 20
501.7656267718026
 30
0.0
 11
627.4529857170397
 21
501.7656267718026
 31
0.0
  0
LINE
  5
AB0
330
1F
100
AcDbEntity
  8
防火材
  6
Continuous
370
    13
100
AcDbLine
 10
622.4249590611179
 20
502.8361059025417
 30
0.0
 11
627.4529857170397
 21
502.8361059025417
 31
0.0
  0
LINE
  5
AB1
330
1F
100
AcDbEntity
  8
防火材
  6
Continuous
370
    13
100
AcDbLine
 10
622.4249590611179
 20
503.9065850332806
 30
0.0
 11
627.4529857170397
 21
503.9065850332806
 31
0.0
  0
LINE
  5
AB2
330
1F
100
AcDbEntity
  8
防火材
  6
Continuous
370
    13
100
AcDbLine
 10
622.4249590611179
 20
504.9770641640185
 30
0.0
 11
627.4529857170397
 21
504.9770641640185
 31
0.0
  0
LINE
  5
AB3
330
1F
100
AcDbEntity
  8
防火材
  6
Continuous
370
    13
100
AcDbLine
 10
622.4249590611179
 20
506.0475432947572
 30
0.0
 11
627.4529857170397
 21
506.0475432947572
 31
0.0
  0
LINE
  5
AB4
330
1F
100
AcDbEntity
  8
防火材
  6
Continuous
370
    13
100
AcDbLine
 10
622.4249590611179
 20
507.1180224254965
 30
0.0
 11
627.4529857170397
 21
507.1180224254965
 31
0.0
  0
LINE
  5
AB5
330
1F
100
AcDbEntity
  8
防火材
  6
Continuous
370
    13
100
AcDbLine
 10
622.4249590611179
 20
508.188501556235
 30
0.0
 11
627.4529857170397
 21
508.188501556235
 31
0.0
  0
LINE
  5
AB6
330
1F
100
AcDbEntity
  8
防火材
  6
Continuous
370
    13
100
AcDbLine
 10
622.4249590611179
 20
509.2589806869741
 30
0.0
 11
627.4529857170397
 21
509.2589806869741
 31
0.0
  0
LINE
  5
AB7
330
1F
100
AcDbEntity
  8
防火材
  6
Continuous
370
    13
100
AcDbLine
 10
622.4249590611179
 20
510.3294598177131
 30
0.0
 11
627.4529857170397
 21
510.3294598177131
 31
0.0
  0
LINE
  5
AB8
330
1F
100
AcDbEntity
  8
防火材
  6
Continuous
 48
0.1
370
    13
100
AcDbLine
 10
622.4249590611179
 20
494.2722728566298
 30
0.0
 11
627.4529857170397
 21
494.2722728566298
 31
0.0
  0
LINE
  5
AB9
330
1F
100
AcDbEntity
  8
防火材
  6
Continuous
 48
0.1
370
    13
100
AcDbLine
 10
622.4249590611179
 20
495.3427519873685
 30
0.0
 11
627.4529857170397
 21
495.3427519873685
 31
0.0
  0
LINE
  5
ABA
330
1F
100
AcDbEntity
  8
防火材
  6
HIDDEN2
 48
0.3
370
    13
100
AcDbLine
 10
622.4249590611179
 20
496.4132311181079
 30
0.0
 11
627.4529857170397
 21
496.4132311181079
 31
0.0
  0
LINE
  5
ABB
330
1F
100
AcDbEntity
  8
防火材
  6
HIDDEN2
 48
0.3
370
    13
100
AcDbLine
 10
622.4249590611179
 20
497.4837102488469
 30
0.0
 11
627.4529857170397
 21
497.4837102488469
 31
0.0
  0
LINE
  5
ABC
330
1F
100
AcDbEntity
  8
防火材
  6
HIDDEN2
 48
0.3
370
    13
100
AcDbLine
 10
622.4249590611179
 20
498.554189379586
 30
0.0
 11
627.4529857170397
 21
498.554189379586
 31
0.0
  0
LINE
  5
ABD
330
1F
100
AcDbEntity
  8
防火材
  6
HIDDEN2
 48
0.3
370
    13
100
AcDbLine
 10
622.4249590611179
 20
499.6246685103245
 30
0.0
 11
627.4529857170397
 21
499.6246685103245
 31
0.0
  0
LINE
  5
ABE
330
1F
100
AcDbEntity
  8
防火材
  6
Continuous
370
    13
100
AcDbLine
 10
622.4249590611179
 20
483.7998310802456
 30
0.0
 11
627.4529857170397
 21
483.7998310802456
 31
0.0
  0
LINE
  5
ABF
330
1F
100
AcDbEntity
  8
防火材
  6
Continuous
370
    13
100
AcDbLine
 10
622.4249590611179
 20
484.8703102109833
 30
0.0
 11
627.4529857170397
 21
484.8703102109833
 31
0.0
  0
LINE
  5
AC0
330
1F
100
AcDbEntity
  8
防火材
  6
Continuous
370
    13
100
AcDbLine
 10
622.4249590611179
 20
485.9407893417222
 30
0.0
 11
627.4529857170397
 21
485.9407893417222
 31
0.0
  0
LINE
  5
AC1
330
1F
100
AcDbEntity
  8
防火材
  6
Continuous
370
    13
100
AcDbLine
 10
622.4249590611179
 20
487.0112684724622
 30
0.0
 11
627.4529857170397
 21
487.0112684724622
 31
0.0
  0
LINE
  5
AC2
330
1F
100
AcDbEntity
  8
防火材
  6
Continuous
370
    13
100
AcDbLine
 10
622.4249590611179
 20
488.0817476031999
 30
0.0
 11
627.4529857170397
 21
488.0817476031999
 31
0.0
  0
LINE
  5
AC3
330
1F
100
AcDbEntity
  8
防火材
  6
Continuous
370
    13
100
AcDbLine
 10
622.4249590611179
 20
489.1522267339391
 30
0.0
 11
627.4529857170397
 21
489.1522267339391
 31
0.0
  0
LINE
  5
AC4
330
1F
100
AcDbEntity
  8
防火材
  6
Continuous
370
    13
100
AcDbLine
 10
622.4249590611179
 20
490.2227058646781
 30
0.0
 11
627.4529857170397
 21
490.2227058646781
 31
0.0
  0
LINE
  5
AC5
330
1F
100
AcDbEntity
  8
防火材
  6
Continuous
370
    13
100
AcDbLine
 10
622.4249590611179
 20
491.2931849954173
 30
0.0
 11
627.4529857170397
 21
491.2931849954173
 31
0.0
  0
LINE
  5
AC6
330
1F
100
AcDbEntity
  8
防火材
  6
Continuous
370
    13
100
AcDbLine
 10
622.4249590611179
 20
492.3636641261563
 30
0.0
 11
627.4529857170397
 21
492.3636641261563
 31
0.0
  0
LINE
  5
AC7
330
1F
100
AcDbEntity
  8
防火材
  6
Continuous
370
    13
100
AcDbLine
 10
622.4249590611179
 20
493.4341432568949
 30
0.0
 11
627.4529857170397
 21
493.4341432568949
 31
0.0
  0
LINE
  5
AC8
330
1F
100
AcDbEntity
  8
防火材
  6
Continuous
370
    13
100
AcDbLine
 10
622.4249590611179
 20
473.0950397728559
 30
0.0
 11
627.4529857170397
 21
473.0950397728559
 31
0.0
  0
LINE
  5
AC9
330
1F
100
AcDbEntity
  8
防火材
  6
Continuous
370
    13
100
AcDbLine
 10
622.4249590611179
 20
474.1655189035948
 30
0.0
 11
627.4529857170397
 21
474.1655189035948
 31
0.0
  0
LINE
  5
ACA
330
1F
100
AcDbEntity
  8
防火材
  6
Continuous
370
    13
100
AcDbLine
 10
622.4249590611179
 20
475.2359980343336
 30
0.0
 11
627.4529857170397
 21
475.2359980343336
 31
0.0
  0
LINE
  5
ACB
330
1F
100
AcDbEntity
  8
防火材
  6
Continuous
370
    13
100
AcDbLine
 10
622.4249590611179
 20
476.3064771650729
 30
0.0
 11
627.4529857170397
 21
476.3064771650729
 31
0.0
  0
LINE
  5
ACC
330
1F
100
AcDbEntity
  8
防火材
  6
Continuous
370
    13
100
AcDbLine
 10
622.4249590611179
 20
477.3769562958117
 30
0.0
 11
627.4529857170397
 21
477.3769562958117
 31
0.0
  0
LINE
  5
ACD
330
1F
100
AcDbEntity
  8
防火材
  6
Continuous
370
    13
100
AcDbLine
 10
622.4249590611179
 20
478.447435426551
 30
0.0
 11
627.4529857170397
 21
478.447435426551
 31
0.0
  0
LINE
  5
ACE
330
1F
100
AcDbEntity
  8
防火材
  6
Continuous
370
    13
100
AcDbLine
 10
622.4249590611179
 20
479.5179145572895
 30
0.0
 11
627.4529857170397
 21
479.5179145572895
 31
0.0
  0
LINE
  5
ACF
330
1F
100
AcDbEntity
  8
防火材
  6
Continuous
370
    13
100
AcDbLine
 10
622.4249590611179
 20
480.5883936880286
 30
0.0
 11
627.4529857170397
 21
480.5883936880286
 31
0.0
  0
LINE
  5
AD0
330
1F
100
AcDbEntity
  8
防火材
  6
Continuous
370
    13
100
AcDbLine
 10
622.4249590611179
 20
481.6588728187675
 30
0.0
 11
627.4529857170397
 21
481.6588728187675
 31
0.0
  0
LINE
  5
AD1
330
1F
100
AcDbEntity
  8
防火材
  6
Continuous
370
    13
100
AcDbLine
 10
622.4249590611179
 20
482.7293519495067
 30
0.0
 11
627.4529857170397
 21
482.7293519495067
 31
0.0
  0
LINE
  5
AD2
330
1F
100
AcDbEntity
  8
防火材
  6
Continuous
370
    13
100
AcDbLine
 10
622.4249590611179
 20
462.3902484654684
 30
0.0
 11
627.4529857170397
 21
462.3902484654684
 31
0.0
  0
LINE
  5
AD3
330
1F
100
AcDbEntity
  8
防火材
  6
Continuous
370
    13
100
AcDbLine
 10
622.4249590611179
 20
463.4607275962062
 30
0.0
 11
627.4529857170397
 21
463.4607275962062
 31
0.0
  0
LINE
  5
AD4
330
1F
100
AcDbEntity
  8
防火材
  6
Continuous
370
    13
100
AcDbLine
 10
622.4249590611179
 20
464.5312067269454
 30
0.0
 11
627.4529857170397
 21
464.5312067269454
 31
0.0
  0
LINE
  5
AD5
330
1F
100
AcDbEntity
  8
防火材
  6
Continuous
370
    13
100
AcDbLine
 10
622.4249590611179
 20
465.6016858576842
 30
0.0
 11
627.4529857170397
 21
465.6016858576842
 31
0.0
  0
LINE
  5
AD6
330
1F
100
AcDbEntity
  8
防火材
  6
Continuous
370
    13
100
AcDbLine
 10
622.4249590611179
 20
466.6721649884235
 30
0.0
 11
627.4529857170397
 21
466.6721649884235
 31
0.0
  0
LINE
  5
AD7
330
1F
100
AcDbEntity
  8
防火材
  6
Continuous
370
    13
100
AcDbLine
 10
622.4249590611179
 20
467.7426441191624
 30
0.0
 11
627.4529857170397
 21
467.7426441191624
 31
0.0
  0
LINE
  5
AD8
330
1F
100
AcDbEntity
  8
防火材
  6
Continuous
370
    13
100
AcDbLine
 10
622.4249590611179
 20
468.8131232499012
 30
0.0
 11
627.4529857170397
 21
468.8131232499012
 31
0.0
  0
LINE
  5
AD9
330
1F
100
AcDbEntity
  8
防火材
  6
Continuous
370
    13
100
AcDbLine
 10
622.4249590611179
 20
469.8836023806405
 30
0.0
 11
627.4529857170397
 21
469.8836023806405
 31
0.0
  0
LINE
  5
ADA
330
1F
100
AcDbEntity
  8
防火材
  6
Continuous
370
    13
100
AcDbLine
 10
622.4249590611179
 20
470.954081511379
 30
0.0
 11
627.4529857170397
 21
470.954081511379
 31
0.0
  0
LINE
  5
ADB
330
1F
100
AcDbEntity
  8
防火材
  6
Continuous
370
    13
100
AcDbLine
 10
622.4249590611179
 20
472.0245606421166
 30
0.0
 11
627.4529857170397
 21
472.0245606421166
 31
0.0
  0
LINE
  5
ADC
330
1F
100
AcDbEntity
  8
防火材
  6
Continuous
370
    13
100
AcDbLine
 10
622.4249590611179
 20
455.9673736810349
 30
0.0
 11
627.4529857170397
 21
455.9673736810349
 31
0.0
  0
LINE
  5
ADD
330
1F
100
AcDbEntity
  8
防火材
  6
Continuous
370
    13
100
AcDbLine
 10
622.4249590611179
 20
457.0378528117737
 30
0.0
 11
627.4529857170397
 21
457.0378528117737
 31
0.0
  0
LINE
  5
ADE
330
1F
100
AcDbEntity
  8
防火材
  6
Continuous
370
    13
100
AcDbLine
 10
622.4249590611179
 20
458.108331942513
 30
0.0
 11
627.4529857170397
 21
458.108331942513
 31
0.0
  0
LINE
  5
ADF
330
1F
100
AcDbEntity
  8
防火材
  6
Continuous
370
    13
100
AcDbLine
 10
622.4249590611179
 20
459.1788110732519
 30
0.0
 11
627.4529857170397
 21
459.1788110732519
 31
0.0
  0
LINE
  5
AE0
330
1F
100
AcDbEntity
  8
防火材
  6
Continuous
370
    13
100
AcDbLine
 10
622.4249590611179
 20
460.2492902039896
 30
0.0
 11
627.4529857170397
 21
460.2492902039896
 31
0.0
  0
LINE
  5
AE1
330
1F
100
AcDbEntity
  8
防火材
  6
Continuous
370
    13
100
AcDbLine
 10
622.4249590611179
 20
461.3197693347284
 30
0.0
 11
627.4529857170397
 21
461.3197693347284
 31
0.0
  0
LINE
  5
AE2
330
1F
100
AcDbEntity
  8
躯体・通線物他
  6
Continuous
370
    13
100
AcDbLine
 10
639.1160122763935
 20
496.056364908231
 30
0.0
 11
661.6788167712914
 21
496.0563649082328
 31
0.0
  0
LINE
  5
AE3
330
1F
100
AcDbEntity
  8
躯体・通線物他
  6
Continuous
370
    13
100
AcDbLine
 10
661.6788167712906
 20
480.4133845861483
 30
0.0
 11
639.1160244762057
 21
480.4133845861484
 31
0.0
  0
LINE
  5
AE4
330
1F
100
AcDbEntity
  8
防火材
  6
Continuous
370
    13
100
AcDbLine
 10
618.5681016458914
 20
496.0563925945566
 30
0.0
 11
618.5681016458914
 21
501.2661409158975
 31
0.0
  0
LINE
  5
AE5
330
1F
100
AcDbEntity
  8
防火材
  6
Continuous
370
    13
100
AcDbLine
 10
613.7069219801543
 20
501.2661409158975
 30
0.0
 11
624.8996427693298
 21
501.2661409158975
 31
0.0
  0
LINE
  5
AE6
330
1F
100
AcDbEntity
  8
躯体・通線物他
  6
Continuous
370
    13
100
AcDbLine
 10
645.4906786609326
 20
496.056364908231
 30
0.0
 11
653.0654222326343
 21
496.056364908231
 31
0.0
  0
LINE
  5
AE7
330
1F
100
AcDbEntity
  8
防火材
  6
Continuous
370
    13
100
AcDbLine
 10
622.4249590611179
 20
539.1768867270961
 30
0.0
 11
627.4529857170397
 21
539.1768867270961
 31
0.0
  0
LINE
  5
AE8
330
1F
100
AcDbEntity
  8
防火材
  6
Continuous
370
    13
100
AcDbLine
 10
622.4249590611179
 20
540.2473658578348
 30
0.0
 11
627.4529857170397
 21
540.2473658578348
 31
0.0
  0
LINE
  5
AE9
330
1F
100
AcDbEntity
  8
防火材
  6
Continuous
370
    13
100
AcDbLine
 10
622.4249590611179
 20
541.3178449885733
 30
0.0
 11
627.4529857170397
 21
541.3178449885733
 31
0.0
  0
LINE
  5
AEA
330
1F
100
AcDbEntity
  8
防火材
  6
Continuous
370
    13
100
AcDbLine
 10
622.4249590611179
 20
542.388324119313
 30
0.0
 11
627.4529857170397
 21
542.388324119313
 31
0.0
  0
LINE
  5
AEB
330
1F
100
AcDbEntity
  8
防火材
  6
Continuous
370
    13
100
AcDbLine
 10
622.4249590611179
 20
543.4588032500514
 30
0.0
 11
627.4529857170397
 21
543.4588032500514
 31
0.0
  0
LINE
  5
AEC
330
1F
100
AcDbEntity
  8
防火材
  6
Continuous
370
    13
100
AcDbLine
 10
622.4249590611179
 20
544.5292823807908
 30
0.0
 11
627.4529857170397
 21
544.5292823807908
 31
0.0
  0
LINE
  5
AED
330
1F
100
AcDbEntity
  8
防火材
  6
Continuous
370
    13
100
AcDbLine
 10
622.4249590611179
 20
545.5997615115295
 30
0.0
 11
627.4529857170397
 21
545.5997615115295
 31
0.0
  0
LINE
  5
AEE
330
1F
100
AcDbEntity
  8
防火材
  6
Continuous
370
    13
100
AcDbLine
 10
622.4249590611179
 20
546.6702406422689
 30
0.0
 11
627.4529857170397
 21
546.6702406422689
 31
0.0
  0
LINE
  5
AEF
330
1F
100
AcDbEntity
  8
防火材
  6
Continuous
370
    13
100
AcDbLine
 10
622.4249590611179
 20
547.7407197730078
 30
0.0
 11
627.4529857170397
 21
547.7407197730078
 31
0.0
  0
LINE
  5
AF0
330
1F
100
AcDbEntity
  8
防火材
  6
Continuous
370
    13
100
AcDbLine
 10
622.4249590611179
 20
548.8111989037454
 30
0.0
 11
627.4529857170397
 21
548.8111989037454
 31
0.0
  0
LINE
  5
AF1
330
1F
100
AcDbEntity
  8
防火材
  6
Continuous
370
    13
100
AcDbLine
 10
622.4249590611179
 20
549.8816780344857
 30
0.0
 11
627.4529857170397
 21
549.8816780344857
 31
0.0
  0
MULTILEADER
  5
AF3
330
1F
100
AcDbEntity
  8
文字
  6
Continuous
160
               712
310
C8020000190000000C00000016000000000000C00C00000033000000000000000C00000013000000993A0000C8000000260000009AA2922AEA6784405473C146A4F47F40000000000000000000000000000000000000000000000000000000000000F03F000000000000F03F0000000000000000000000000000000032FF23
310
FFFB3021FF2CFF23FF8A5E00000700000001000000888D3BF4FD6D0A40000000000000F03F0000000000000000000000000000F03F0000000000000000000000000000000000000000000000000000000001000000320000002DFF33FF200030FFB430B730C330AF300000FC3000000000000000000C000000330000000000
310
00000C00000010000000030000000C00000016000000000000C00C00000012000000000000000C00000013000000010000000C0000001400000001000000540000000700000003000000098BF054E64884404890940885207F400000000000000000582C77659540844019D8E3DEE6007F40000000000000000083EBEFAF52
310
4384403C9A3A7134247F4000000000000000000C00000014000000010000000C00000013000000891300003C0000000600000002000000463B70821C4684404295E7BC5C227F40000000000000000010F1C7921A678440B78E2CE111EA7F4000000000000000000C00000013000000122700003C0000000600000002000000
310
10F1C7921A678440B78E2CE111EA7F400000000000000000A6350E7E466A8440B78E2CE111EA7F4000000000000000000C00000016000000000000C00C00000012000000000000000C00000017000000000000000C000000130000009A3A00003C0000000600000002000000A6350E7E466A8440B78E2CE111EA7F40000000
310
000000000014969C7B2E298540B78E2CE111EA7F4000000000000000000C00000016000000000000C00C00000012000000000000000C00000017000000FFFFFFFF0C0000003300000000000000
100
AcDbMLeader
270
     2
300
CONTEXT_DATA{
 40
1.0
 10
653.2844201192972
 20
510.6293651333357
 30
0.0
 41
3.303707035128983
140
2.202471356752655
145
0.0991112110538695
174
     5
175
     5
176
     0
177
     0
290
     1
304
ＲＣ・ＡＬＣ床
 11
0.0
 21
0.0
 31
1.0
340
11
 12
653.3835313303511
 22
515.1569454564783
 32
0.0
 13
1.0
 23
0.0
 33
0.0
 42
0.0
 43
28.13027036919043
 44
0.0
 45
1.0
170
     1
 90
-1073741824
171
     1
172
     5
 91
-1073741824
141
0.0
 92
        0
291
     0
292
     0
173
     0
293
     0
142
0.0
143
0.0
294
     0
295
     0
296
     0
110
682.0190433071143
120
451.7278570736254
130
0.0
111
1.0
121
0.0
131
0.0
112
0.0
122
1.0
132
0.0
297
     0
302
LEADER{
290
     1
291
     1
 10
652.8879752750817
 20
510.6293651333357
 30
0.0
 11
1.0
 21
0.0
 31
0.0
 90
        1
 40
0.396444844215478
304
LEADER_LINE{
 10
648.0729474363715
 20
496.0563649082337
 30
0.0
 91
        0
305
}
271
     0
303
}
272
     9
273
     9
301
}
340
12E
 90
 50681344
170
     1
 91
-1056964608
341
14
171
    -2
290
     1
291
     1
 41
0.36
 42
2.0
172
     2
343
11
173
     5
 95
        5
174
     1
175
     2
 92
-1056964608
292
     0
 93
-1056964608
 10
1.0
 20
1.0
 30
1.0
 43
0.0
176
     0
293
     0
294
     0
178
     0
179
     1
 45
1.0
271
     0
272
     9
273
     9
295
     0
  0
MULTILEADER
  5
AF4
330
1F
100
AcDbEntity
  8
文字
  6
Continuous
160
               704
310
C0020000190000000C00000016000000000000C00C00000033000000000000000C00000013000000993A0000C00000002600000081B98669A506844006D66DF0A1BF7C40000000000000000000000000000000000000000000000000000000000000F03F000000000000F03F00000000000000000000000000000000AB8C1A
310
90697200000300000001000000888D3BF4FD6D0A40000000000000F03F0000000000000000000000000000F03F0000000000000000000000000000000000000000000000000000000001000000320000002DFF33FF200030FFB430B730C330AF300000000000000000000000000C00000033000000000000000C0000001000
310
0000030000000C00000016000000000000C00C00000012000000000000000C00000013000000010000000C00000014000000010000005400000007000000030000005359A287EE9B83405021F13AF2517D400000000000000000211E5120D48F83403EB47FA2386C7D400000000000000000A7DC1CD1899F8340381F509837
310
5B7D4000000000000000000C00000014000000010000000C00000013000000891300003C0000000600000002000000FD9A5F2CBC9D834044A0A0E994567D4000000000000000007941D9EE8805844067F1D88A0FB57C4000000000000000000C00000013000000122700003C00000006000000020000007941D9EE88058440
310
67F1D88A0FB57C4000000000000000000F861FDAB408844067F1D88A0FB57C4000000000000000000C00000016000000000000C00C00000012000000000000000C00000017000000000000000C000000130000009A3A00003C00000006000000020000000F861FDAB408844067F1D88A0FB57C400000000000000000DA1946
310
521F77844067F1D88A0FB57C4000000000000000000C00000016000000000000C00C00000012000000000000000C00000017000000FFFFFFFF0C0000003300000000000000
100
AcDbMLeader
270
     2
300
CONTEXT_DATA{
 40
1.0
 10
641.0883066618715
 20
459.3162945246062
 30
0.0
 41
3.303707035128983
140
2.202471356752655
145
0.0991112110538695
174
     5
175
     5
176
     0
177
     0
290
     1
304
貫通物
 11
0.0
 21
0.0
 31
1.0
340
11
 12
641.1874178729255
 22
463.8814169731481
 32
0.0
 13
1.0
 23
0.0
 33
0.0
 42
0.0
 43
28.13027036919043
 44
0.0
 45
1.0
170
     1
 90
-1073741824
171
     1
172
     5
 91
-1073741824
141
0.0
 92
        0
291
     0
292
     0
173
     0
293
     0
142
0.0
143
0.0
294
     0
295
     0
296
     0
110
669.3273737944194
120
444.2482198261834
130
0.0
111
1.0
121
0.0
131
0.0
112
0.0
122
1.0
132
0.0
297
     0
302
LEADER{
290
     1
291
     1
 10
640.6918618176561
 20
459.3162945246062
 30
0.0
 11
1.0
 21
0.0
 31
0.0
 90
        1
 40
0.396444844215478
304
LEADER_LINE{
 10
625.9785772645301
 20
470.7638268459739
 30
0.0
 91
        0
305
}
271
     0
303
}
272
     9
273
     9
301
}
340
12E
 90
 50681344
170
     1
 91
-1056964608
341
14
171
    -2
290
     1
291
     1
 41
0.36
 42
2.0
172
     2
343
11
173
     5
 95
        5
174
     1
175
     2
 92
-1056964608
292
     0
 93
-1056964608
 10
1.0
 20
1.0
 30
1.0
 43
0.0
176
     0
293
     0
294
     0
178
     0
179
     1
 45
1.0
271
     0
272
     9
273
     9
295
     0
  0
DIMENSION
  5
AF6
330
1F
100
AcDbEntity
  8
寸法
  6
Continuous
100
AcDbDimension
280
     0
  2
*D3
 10
668.5986397284547
 20
480.4133845861485
 30
0.0
 11
675.440962803041
 21
488.2348747471907
 31
0.0
 70
   160
  1
{\fMS PGothic|b0|i0|c128|p50;ＲＣ７５以上\PＡＬＣ１００以上}
 71
     5
 42
15.6429803220854
 73
     0
 74
     0
 75
     0
 53
90.0
  3
Standard
100
AcDbAlignedDimension
 13
664.6252502404181
 23
496.0563649082337
 33
0.0
 14
664.6252502404181
 24
480.4133845861484
 34
0.0
 50
270.0
100
AcDbRotatedDimension
1001
ACAD
1000
DSTYLE
1002
{
1070
    41
1040
2.0
1070
    42
1040
0.0
1070
    77
1070
     1
1070
   140
1040
3.0
1070
   147
1040
1.0
1070
   279
1070
     2
1002
}
  0
ARC
  5
AF7
330
1F
100
AcDbEntity
  8
躯体・通線物他
100
AcDbCircle
 10
656.440852146082
 20
492.1456198277133
 30
0.0
 40
6.536834134330695
100
AcDbArc
 50
323.2544148403512
 51
36.74558515962741
  0
ARC
  5
AF8
330
1F
100
AcDbEntity
  8
躯体・通線物他
100
AcDbCircle
 10
668.6091897584019
 20
484.3241296666708
 30
0.0
 40
7.957637640990856
100
AcDbArc
 50
150.5643666166523
 51
209.4356333833645
  0
ARC
  5
AF9
330
1F
100
AcDbEntity
  8
躯体・通線物他
100
AcDbCircle
 10
585.4363630980217
 20
492.1456198277104
 30
0.0
 40
6.536834134330695
100
AcDbArc
 50
323.2544148403512
 51
36.74558515962741
  0
ARC
  5
AFA
330
1F
100
AcDbEntity
  8
躯体・通線物他
100
AcDbCircle
 10
597.6047007103415
 20
484.324129666668
 30
0.0
 40
7.957637640990856
100
AcDbArc
 50
150.5643666166523
 51
209.4356333833645
  0
MULTILEADER
  5
AFB
330
1F
100
AcDbEntity
  8
文字
  6
Continuous
160
               712
310
C8020000190000000C00000016000000000000C00C00000033000000000000000C00000013000000993A0000C8000000260000007294EFE7A56A8240003B022910F27F40000000000000000000000000000000000000000000000000000000000000F03F000000000000F03F00000000000000000000000000000000B171A8
310
81355FB730FC30C830000000000600000001000000888D3BF4FD6D0A40000000000000F03F0000000000000000000000000000F03F0000000000000000000000000000000000000000000000000000000001000000320000002DFF33FF200030FFB430B730C330AF300000FC30000000000000B23F0C000000330000000000
310
00000C00000010000000030000000C00000016000000000000C00C00000012000000000000000C00000013000000010000000C000000140000000100000054000000070000000300000081E3CB8EC252834090D1EB1ACE777F400000000000000000432FE0788B548340851EFA1C42547F4000000000000000008224DD9417
310
4D8340655F39D6B9747F4000000000000000000C00000014000000010000000C00000013000000891300003C00000006000000020000000184D411ED4F83407B9892F843767F4000000000000000001F663B4F8C40834063566DC37DE77F4000000000000000000C00000013000000112700003C0000000600000002000000
310
1F663B4F8C40834063566DC37DE77F4000000000000000008921F563603D834063566DC37DE77F4000000000000000000C00000016000000000000C00C00000012000000000000000C00000017000000000000000C000000130000009A3A00003C0000000600000002000000A62B7770336D824063566DC37DE77F40000000
310
00000000008921F563603D834063566DC37DE77F4000000000000000000C00000016000000000000C00C00000012000000000000000C00000017000000FFFFFFFF0C0000003300000000000000
100
AcDbMLeader
270
     2
300
CONTEXT_DATA{
 40
1.0
 10
589.5510056436323
 20
510.4682039519304
 30
0.0
 41
3.303707035128983
140
2.202471356752655
145
0.0991112110538695
174
     5
175
     5
176
     2
177
     0
290
     1
304
{\fMS PGothic|b0|i0|c128|p50;熱膨張シート}
 11
0.0
 21
0.0
 31
1.0
340
11
 12
615.572954442829
 22
514.995784275073
 32
0.0
 13
1.0
 23
0.0
 33
0.0
 42
0.0
 43
31.708916867956
 44
0.0
 45
1.0
170
     1
 90
-1073741824
171
     3
172
     5
 91
-1073741824
141
0.0
 92
        0
291
     0
292
     0
173
     0
293
     0
142
0.0
143
0.0
294
     0
295
     0
296
     0
110
611.3771385371871
120
508.55951490859
130
0.0
111
1.0
121
0.0
131
0.0
112
0.0
122
1.0
132
0.0
297
     0
302
LEADER{
290
     1
291
     1
 10
616.0685104980983
 20
510.4682039519304
 30
0.0
 11
-1.0
 21
0.0
 31
0.0
 90
        0
 40
0.396444844215478
304
LEADER_LINE{
 10
618.5681016458914
 20
501.2661409158975
 30
0.0
 91
        0
305
}
271
     0
303
}
272
     9
273
     9
301
}
340
12E
 90
 50681344
170
     1
 91
-1056964608
341
14
171
    -2
290
     1
291
     1
 41
0.36
 42
2.0
172
     2
343
11
173
     5
 95
        5
174
     1
175
     2
 92
-1056964608
292
     0
 93
-1056964608
 10
1.0
 20
1.0
 30
1.0
 43
0.0
176
     0
293
     0
294
     0
178
     0
179
     3
 45
1.0
271
     0
272
     9
273
     9
295
     0
  0
LINE
  5
AFC
330
1F
100
AcDbEntity
  8
躯体・通線物他
100
AcDbLine
 10
610.6832732622905
 20
496.0563925945566
 30
0.0
 11
639.116012276369
 21
496.0563925945566
 31
0.0
  0
ARC
  5
AFD
330
1F
100
AcDbEntity
  8
防火材
  6
Continuous
370
    13
100
AcDbCircle
 10
623.6819657250716
 20
455.5968235629603
 30
0.0
 40
1.438737771821279
100
AcDbArc
 50
209.1100242203971
 51
330.889975782092
  0
ARC
  5
AFE
330
1F
100
AcDbEntity
  8
防火材
  6
Continuous
370
    13
100
AcDbCircle
 10
623.6819657251075
 20
453.8981240976502
 30
0.0
 40
1.605493123745212
100
AcDbArc
 50
38.46933945025594
 51
141.5306605522405
  0
ARC
  5
AFF
330
1F
100
AcDbEntity
  8
防火材
  6
Continuous
370
    13
100
AcDbCircle
 10
626.1959790530593
 20
455.5248378775289
 30
0.0
 40
1.405125821948692
100
AcDbArc
 50
206.5446270202307
 51
333.4553729797688
  0
LINE
  5
B00
330
1F
100
AcDbEntity
  8
躯体・通線物他
100
AcDbLine
 10
610.6832854621273
 20
480.4133845861484
 30
0.0
 11
622.424959061118
 21
480.4133845861484
 31
0.0
  0
LINE
  5
B01
330
1F
100
AcDbEntity
  8
防火材
  6
Continuous
370
    13
100
AcDbLine
 10
613.7069219801543
 20
496.0563925945566
 30
0.0
 11
613.7069219801543
 21
501.2661409158975
 31
0.0
  0
LINE
  5
B02
330
1F
100
AcDbEntity
  8
防火材
  6
Continuous
370
    13
100
AcDbLine
 10
631.2311838927682
 20
496.0563925945566
 30
0.0
 11
631.2311838927682
 21
501.2661409158975
 31
0.0
  0
LINE
  5
B03
330
1F
100
AcDbEntity
  8
防火材
  6
Continuous
370
    13
100
AcDbLine
 10
636.0923635585053
 20
501.2661409158975
 30
0.0
 11
624.8996427693298
 21
501.2661409158975
 31
0.0
  0
LINE
  5
B04
330
1F
100
AcDbEntity
  8
防火材
  6
Continuous
370
    13
100
AcDbLine
 10
636.0923635585053
 20
496.0563925945566
 30
0.0
 11
636.0923635585053
 21
501.2661409158975
 31
0.0
  0
LINE
  5
B05
330
1F
100
AcDbEntity
  8
防火材
  6
HIDDEN2
 48
0.3
370
    13
100
AcDbLine
 10
622.4249590611184
 20
501.2661409158975
 30
0.0
 11
622.4249590611183
 21
496.0563925945566
 31
0.0
  0
LINE
  5
B06
330
1F
100
AcDbEntity
  8
防火材
  6
HIDDEN2
 48
0.3
370
    13
100
AcDbLine
 10
627.4529857170397
 20
501.2661409158975
 30
0.0
 11
627.4529857170397
 21
496.0563925945566
 31
0.0
  0
LINE
  5
B43
330
1F
100
AcDbEntity
  8
躯体・通線物他
100
AcDbLine
 10
527.1503101646839
 20
480.4133845861484
 30
0.0
 11
538.8133489238499
 21
480.4133845861484
 31
0.0
  0
LINE
  5
B44
330
1F
100
AcDbEntity
  8
躯体・通線物他
100
AcDbLine
 10
627.4529857170397
 20
480.4133845861484
 30
0.0
 11
639.1160244762057
 21
480.4133845861484
 31
0.0
  0
MTEXT
  5
B60
330
1F
100
AcDbEntity
  8
文字
  6
Continuous
370
    13
100
AcDbMText
 10
513.9907245469767
 20
437.0318090530275
 30
0.0
 40
3.0
 41
39.99968850350036
 46
0.0
 71
     1
 72
     5
  1
{\fMS PGothic|b0|i0|c128|p50;①モルタル埋設}
 73
     1
 44
0.75
101
Embedded Object
 70
     1
 10
1.0
 20
0.0
 30
0.0
 11
513.9907245469767
 21
437.0318090530275
 31
0.0
 40
39.99968850350036
 41
0.0
 42
28.78977272727273
 43
4.193181818181818
 71
     2
 72
     1
 44
39.99968850350036
 45
0.8849620939533352
 73
     0
 74
     0
 46
11.78648549537397
  0
MTEXT
  5
B61
330
1F
100
AcDbEntity
  8
文字
  6
Continuous
370
    13
100
AcDbMText
 10
614.4237775125575
 20
437.0318090530275
 30
0.0
 40
3.0
 41
46.69522587965606
 46
0.0
 71
     1
 72
     5
  1
{\fMS PGothic|b0|i0|c128|p50;②コンクリート埋設}
 73
     1
 44
0.75
101
Embedded Object
 70
     1
 10
1.0
 20
0.0
 30
0.0
 11
614.4237775125575
 21
437.0318090530275
 31
0.0
 40
46.69522587965606
 41
0.0
 42
33.83522727272727
 43
4.193181818181818
 71
     2
 72
     1
 44
46.69522587965606
 45
0.8849620939533352
 73
     0
 74
     0
 46
11.36845267039595
  0
LINE
  5
BDF
330
1F
100
AcDbEntity
  8
図面枠
  6
Continuous
370
    13
100
AcDbLine
 10
667.6342458803137
 20
349.0765444592481
 30
0.0
 11
599.4045051381233
 21
349.0765444592481
 31
0.0
  0
LINE
  5
BE0
330
1F
100
AcDbEntity
  8
図面枠
  6
Continuous
370
    13
100
AcDbLine
 10
667.6342458803138
 20
345.370009413844
 30
0.0
 11
599.4045051381233
 21
345.370009413844
 31
0.0
  0
LINE
  5
BE3
330
1F
100
AcDbEntity
  8
防火材
100
AcDbLine
 10
599.4045051381232
 20
349.0765444592481
 30
0.0
 11
599.4045051381235
 21
300.8915888689947
 31
0.0
  0
MTEXT
  5
BE4
330
1F
100
AcDbEntity
  8
文字
  6
Continuous
370
    13
100
AcDbMText
 10
619.1833288020537
 20
348.4314325945519
 30
0.0
 40
1.5
 41
9.300692268465596
 46
0.0
 71
     1
 72
     5
  1
{\fMS PGothic|b0|i0|c128|p50;呼び径}
 73
     1
 44
0.75
101
Embedded Object
 70
     1
 10
1.0
 20
0.0
 30
0.0
 11
619.1833288020537
 21
348.4314325945519
 31
0.0
 40
9.300692268465596
 41
0.0
 42
6.178977272727272
 43
1.994318181818181
 71
     2
 72
     1
 44
9.300692268465596
 45
0.8849620939533352
 73
     0
 74
     0
 46
2.569124224878326
  0
LINE
  5
BE5
330
1F
100
AcDbEntity
  8
防火材
100
AcDbLine
 10
614.0571946734823
 20
349.0765444592481
 30
0.0
 11
614.0571946734824
 21
300.8915888689947
 31
0.0
  0
LINE
  5
BE6
330
1F
100
AcDbEntity
  8
防火材
100
AcDbLine
 10
629.720413780388
 20
349.0765444592481
 30
0.0
 11
629.720413780388
 21
300.8915888689947
 31
0.0
  0
LINE
  5
BE7
330
1F
100
AcDbEntity
  8
防火材
100
AcDbLine
 10
645.3836328872936
 20
349.0765444592482
 30
0.0
 11
645.3836328872938
 21
300.8915888689947
 31
0.0
  0
LINE
  5
BE8
330
1F
100
AcDbEntity
  8
防火材
100
AcDbLine
 10
667.6342458803138
 20
349.0765444592482
 30
0.0
 11
667.634245880314
 21
300.8915888689947
 31
0.0
  0
LINE
  5
BE9
330
1F
100
AcDbEntity
  8
図面枠
  6
Continuous
370
    13
100
AcDbLine
 10
667.6342458803138
 20
341.6634743684398
 30
0.0
 11
614.0571946734823
 21
341.6634743684398
 31
0.0
  0
LINE
  5
BEA
330
1F
100
AcDbEntity
  8
図面枠
  6
Continuous
370
    13
100
AcDbLine
 10
667.6342458803138
 20
337.9569393230357
 30
0.0
 11
614.0571946734823
 21
337.9569393230358
 31
0.0
  0
LINE
  5
BEB
330
1F
100
AcDbEntity
  8
図面枠
  6
Continuous
370
    13
100
AcDbLine
 10
667.6342458803138
 20
334.2504042776317
 30
0.0
 11
614.0571946734823
 21
334.2504042776316
 31
0.0
  0
LINE
  5
BEC
330
1F
100
AcDbEntity
  8
図面枠
  6
Continuous
370
    13
100
AcDbLine
 10
667.6342458803138
 20
330.5438692322275
 30
0.0
 11
614.0571946734823
 21
330.5438692322276
 31
0.0
  0
LINE
  5
BED
330
1F
100
AcDbEntity
  8
図面枠
  6
Continuous
370
    13
100
AcDbLine
 10
667.6342458803138
 20
326.8373341868235
 30
0.0
 11
614.0571946734823
 21
326.8373341868234
 31
0.0
  0
LINE
  5
BEE
330
1F
100
AcDbEntity
  8
図面枠
  6
Continuous
370
    13
100
AcDbLine
 10
667.6342458803138
 20
323.1307991414194
 30
0.0
 11
599.4045051381233
 21
323.1307991414194
 31
0.0
  0
LINE
  5
BEF
330
1F
100
AcDbEntity
  8
図面枠
  6
Continuous
370
    13
100
AcDbLine
 10
667.6342458803138
 20
319.4242640960153
 30
0.0
 11
614.0571946734823
 21
319.4242640960153
 31
0.0
  0
LINE
  5
BF0
330
1F
100
AcDbEntity
  8
図面枠
  6
Continuous
370
    13
100
AcDbLine
 10
667.6342458803138
 20
315.7177290506112
 30
0.0
 11
614.0571946734823
 21
315.7177290506112
 31
0.0
  0
LINE
  5
BF1
330
1F
100
AcDbEntity
  8
図面枠
  6
Continuous
370
    13
100
AcDbLine
 10
667.6342458803138
 20
312.011194005207
 30
0.0
 11
614.0571946734824
 21
312.011194005207
 31
0.0
  0
LINE
  5
BF2
330
1F
100
AcDbEntity
  8
図面枠
  6
Continuous
370
    13
100
AcDbLine
 10
667.6342458803138
 20
308.3046589598029
 30
0.0
 11
614.0571946734824
 21
308.3046589598029
 31
0.0
  0
LINE
  5
BF3
330
1F
100
AcDbEntity
  8
図面枠
  6
Continuous
370
    13
100
AcDbLine
 10
667.6342458803138
 20
304.5981239143988
 30
0.0
 11
614.0571946734824
 21
304.5981239143988
 31
0.0
  0
LINE
  5
BF4
330
1F
100
AcDbEntity
  8
図面枠
  6
Continuous
370
    13
100
AcDbLine
 10
667.6342458803138
 20
300.8915888689947
 30
0.0
 11
599.4045051381233
 21
300.8915888689947
 31
0.0
  0
MTEXT
  5
BF5
330
1F
100
AcDbEntity
  8
文字
  6
Continuous
370
    13
100
AcDbMText
 10
634.0020124359559
 20
348.4314325945519
 30
0.0
 40
1.5
 41
10.5370849783343
 46
0.0
 71
     1
 72
     5
  1
{\fMS PGothic|b0|i0|c128|p50;外径（㎜）}
 73
     1
 44
0.75
101
Embedded Object
 70
     1
 10
1.0
 20
0.0
 30
0.0
 11
634.0020124359559
 21
348.4314325945519
 31
0.0
 40
10.5370849783343
 41
0.0
 42
8.215909090909089
 43
1.943181818181818
 71
     2
 72
     1
 44
10.5370849783343
 45
0.8849620939533352
 73
     0
 74
     0
 46
2.569124224878326
  0
MTEXT
  5
BF6
330
1F
100
AcDbEntity
  8
文字
  6
Continuous
370
    13
100
AcDbMText
 10
649.1585096448918
 20
348.4314325945521
 30
0.0
 40
1.5
 41
17.57716017142435
 46
0.0
 71
     1
 72
     5
  1
{\fMS PGothic|b0|i0|c128|p50;適用開口径（㎜）}
 73
     1
 44
0.75
101
Embedded Object
 70
     1
 10
1.0
 20
0.0
 30
0.0
 11
649.1585096448918
 21
348.4314325945521
 31
0.0
 40
17.57716017142435
 41
0.0
 42
14.76136363636363
 43
1.968749999999999
 71
     2
 72
     1
 44
17.57716017142435
 45
0.8849620939533352
 73
     0
 74
     0
 46
2.569124224878326
  0
MTEXT
  5
BF7
330
1F
100
AcDbEntity
  8
文字
  6
Continuous
370
    13
100
AcDbMText
 10
603.6438398629123
 20
348.4314325945519
 30
0.0
 40
1.5
 41
9.300692268465596
 46
0.0
 71
     1
 72
     5
  1
{\fMS PGothic|b0|i0|c128|p50;電線管}
 73
     1
 44
0.75
101
Embedded Object
 70
     1
 10
1.0
 20
0.0
 30
0.0
 11
603.6438398629123
 21
348.4314325945519
 31
0.0
 40
9.300692268465596
 41
0.0
 42
6.21306818181818
 43
1.985795454545454
 71
     2
 72
     1
 44
9.300692268465596
 45
0.8849620939533352
 73
     0
 74
     0
 46
2.569124224878326
  0
MTEXT
  5
BF8
330
1F
100
AcDbEntity
  8
文字
  6
Continuous
370
    13
100
AcDbMText
 10
603.6438398629123
 20
335.6079030381296
 30
0.0
 40
1.5
 41
9.300692268465596
 46
0.0
 71
     1
 72
     5
  1
{\fMS PGothic|b0|i0|c128|p50;PF管}
 73
     1
 44
0.75
101
Embedded Object
 70
     1
 10
1.0
 20
0.0
 30
0.0
 11
603.6438398629123
 21
335.6079030381296
 31
0.0
 40
9.300692268465596
 41
0.0
 42
4.43181818181818
 43
1.960227272727272
 71
     2
 72
     1
 44
9.300692268465596
 45
0.8849620939533352
 73
     0
 74
     0
 46
2.569124224878326
  0
MTEXT
  5
BF9
330
1F
100
AcDbEntity
  8
文字
  6
Continuous
370
    13
100
AcDbMText
 10
603.6438398629123
 20
312.8292620066028
 30
0.0
 40
1.5
 41
9.300692268465596
 46
0.0
 71
     1
 72
     5
  1
{\fMS PGothic|b0|i0|c128|p50;CD管}
 73
     1
 44
0.75
101
Embedded Object
 70
     1
 10
1.0
 20
0.0
 30
0.0
 11
603.6438398629123
 21
312.8292620066028
 31
0.0
 40
9.300692268465596
 41
0.0
 42
4.764204545454544
 43
1.960227272727272
 71
     2
 72
     1
 44
9.300692268465596
 45
0.8849620939533352
 73
     0
 74
     0
 46
2.569124224878326
  0
MTEXT
  5
BFA
330
1F
100
AcDbEntity
  8
文字
  6
Continuous
370
    13
100
AcDbMText
 10
621.2102194647688
 20
344.3874362805778
 30
0.0
 40
1.5
 41
9.300692268465596
 46
0.0
 71
     1
 72
     5
  1
{\fMS PGothic|b0|i0|c128|p50;１４}
 73
     1
 44
0.75
101
Embedded Object
 70
     1
 10
1.0
 20
0.0
 30
0.0
 11
621.2102194647688
 21
344.3874362805778
 31
0.0
 40
9.300692268465596
 41
0.0
 42
2.53125
 43
1.5
 71
     2
 72
     1
 44
9.300692268465596
 45
0.8849620939533352
 73
     0
 74
     0
 46
2.569124224878326
  0
MTEXT
  5
BFB
330
1F
100
AcDbEntity
  8
文字
  6
Continuous
370
    13
100
AcDbMText
 10
621.2102194647688
 20
340.6809012351737
 30
0.0
 40
1.5
 41
9.300692268465596
 46
0.0
 71
     1
 72
     5
  1
{\fMS PGothic|b0|i0|c128|p50;１６}
 73
     1
 44
0.75
101
Embedded Object
 70
     1
 10
1.0
 20
0.0
 30
0.0
 11
621.2102194647688
 21
340.6809012351737
 31
0.0
 40
9.300692268465596
 41
0.0
 42
2.505681818181818
 43
1.5
 71
     2
 72
     1
 44
9.300692268465596
 45
0.8849620939533352
 73
     0
 74
     0
 46
2.569124224878326
  0
MTEXT
  5
BFC
330
1F
100
AcDbEntity
  8
文字
  6
Continuous
370
    13
100
AcDbMText
 10
621.2102194647688
 20
336.9743661897696
 30
0.0
 40
1.5
 41
9.300692268465596
 46
0.0
 71
     1
 72
     5
  1
{\fMS PGothic|b0|i0|c128|p50;２２}
 73
     1
 44
0.75
101
Embedded Object
 70
     1
 10
1.0
 20
0.0
 30
0.0
 11
621.2102194647688
 21
336.9743661897696
 31
0.0
 40
9.300692268465596
 41
0.0
 42
2.633522727272727
 43
1.5
 71
     2
 72
     1
 44
9.300692268465596
 45
0.8849620939533352
 73
     0
 74
     0
 46
2.569124224878326
  0
MTEXT
  5
BFD
330
1F
100
AcDbEntity
  8
文字
  6
Continuous
370
    13
100
AcDbMText
 10
621.2102194647688
 20
333.2678311443655
 30
0.0
 40
1.5
 41
9.300692268465596
 46
0.0
 71
     1
 72
     5
  1
{\fMS PGothic|b0|i0|c128|p50;２８}
 73
     1
 44
0.75
101
Embedded Object
 70
     1
 10
1.0
 20
0.0
 30
0.0
 11
621.2102194647688
 21
333.2678311443655
 31
0.0
 40
9.300692268465596
 41
0.0
 42
2.616477272727272
 43
1.5
 71
     2
 72
     1
 44
9.300692268465596
 45
0.8849620939533352
 73
     0
 74
     0
 46
2.569124224878326
  0
MTEXT
  5
BFE
330
1F
100
AcDbEntity
  8
文字
  6
Continuous
370
    13
100
AcDbMText
 10
621.2102194647688
 20
329.5612960989613
 30
0.0
 40
1.5
 41
9.300692268465596
 46
0.0
 71
     1
 72
     5
  1
{\fMS PGothic|b0|i0|c128|p50;３６}
 73
     1
 44
0.75
101
Embedded Object
 70
     1
 10
1.0
 20
0.0
 30
0.0
 11
621.2102194647688
 21
329.5612960989613
 31
0.0
 40
9.300692268465596
 41
0.0
 42
2.659090909090909
 43
1.517045454545454
 71
     2
 72
     1
 44
9.300692268465596
 45
0.8849620939533352
 73
     0
 74
     0
 46
2.569124224878326
  0
MTEXT
  5
BFF
330
1F
100
AcDbEntity
  8
文字
  6
Continuous
370
    13
100
AcDbMText
 10
621.2102194647688
 20
325.8547610535574
 30
0.0
 40
1.5
 41
9.300692268465596
 46
0.0
 71
     1
 72
     5
  1
{\fMS PGothic|b0|i0|c128|p50;４２}
 73
     1
 44
0.75
101
Embedded Object
 70
     1
 10
1.0
 20
0.0
 30
0.0
 11
621.2102194647688
 21
325.8547610535574
 31
0.0
 40
9.300692268465596
 41
0.0
 42
2.68465909090909
 43
1.5
 71
     2
 72
     1
 44
9.300692268465596
 45
0.8849620939533352
 73
     0
 74
     0
 46
2.569124224878326
  0
MTEXT
  5
C07
330
1F
100
AcDbEntity
  8
文字
  6
Continuous
370
    13
100
AcDbMText
 10
621.210219464769
 20
322.1482260081532
 30
0.0
 40
1.5
 41
9.300692268465596
 46
0.0
 71
     1
 72
     5
  1
{\fMS PGothic|b0|i0|c128|p50;１４}
 73
     1
 44
0.75
101
Embedded Object
 70
     1
 10
1.0
 20
0.0
 30
0.0
 11
621.210219464769
 21
322.1482260081532
 31
0.0
 40
9.300692268465596
 41
0.0
 42
2.53125
 43
1.5
 71
     2
 72
     1
 44
9.300692268465596
 45
0.8849620939533352
 73
     0
 74
     0
 46
2.569124224878326
  0
MTEXT
  5
C08
330
1F
100
AcDbEntity
  8
文字
  6
Continuous
370
    13
100
AcDbMText
 10
621.210219464769
 20
318.4416909627491
 30
0.0
 40
1.5
 41
9.300692268465596
 46
0.0
 71
     1
 72
     5
  1
{\fMS PGothic|b0|i0|c128|p50;１６}
 73
     1
 44
0.75
101
Embedded Object
 70
     1
 10
1.0
 20
0.0
 30
0.0
 11
621.210219464769
 21
318.4416909627491
 31
0.0
 40
9.300692268465596
 41
0.0
 42
2.505681818181818
 43
1.5
 71
     2
 72
     1
 44
9.300692268465596
 45
0.8849620939533352
 73
     0
 74
     0
 46
2.569124224878326
  0
MTEXT
  5
C09
330
1F
100
AcDbEntity
  8
文字
  6
Continuous
370
    13
100
AcDbMText
 10
621.210219464769
 20
314.735155917345
 30
0.0
 40
1.5
 41
9.300692268465596
 46
0.0
 71
     1
 72
     5
  1
{\fMS PGothic|b0|i0|c128|p50;２２}
 73
     1
 44
0.75
101
Embedded Object
 70
     1
 10
1.0
 20
0.0
 30
0.0
 11
621.210219464769
 21
314.735155917345
 31
0.0
 40
9.300692268465596
 41
0.0
 42
2.633522727272727
 43
1.5
 71
     2
 72
     1
 44
9.300692268465596
 45
0.8849620939533352
 73
     0
 74
     0
 46
2.569124224878326
  0
MTEXT
  5
C0A
330
1F
100
AcDbEntity
  8
文字
  6
Continuous
370
    13
100
AcDbMText
 10
621.210219464769
 20
311.0286208719409
 30
0.0
 40
1.5
 41
9.300692268465596
 46
0.0
 71
     1
 72
     5
  1
{\fMS PGothic|b0|i0|c128|p50;２８}
 73
     1
 44
0.75
101
Embedded Object
 70
     1
 10
1.0
 20
0.0
 30
0.0
 11
621.210219464769
 21
311.0286208719409
 31
0.0
 40
9.300692268465596
 41
0.0
 42
2.616477272727272
 43
1.5
 71
     2
 72
     1
 44
9.300692268465596
 45
0.8849620939533352
 73
     0
 74
     0
 46
2.569124224878326
  0
MTEXT
  5
C0B
330
1F
100
AcDbEntity
  8
文字
  6
Continuous
370
    13
100
AcDbMText
 10
621.210219464769
 20
307.3220858265368
 30
0.0
 40
1.5
 41
9.300692268465596
 46
0.0
 71
     1
 72
     5
  1
{\fMS PGothic|b0|i0|c128|p50;３６}
 73
     1
 44
0.75
101
Embedded Object
 70
     1
 10
1.0
 20
0.0
 30
0.0
 11
621.210219464769
 21
307.3220858265368
 31
0.0
 40
9.300692268465596
 41
0.0
 42
2.659090909090909
 43
1.517045454545454
 71
     2
 72
     1
 44
9.300692268465596
 45
0.8849620939533352
 73
     0
 74
     0
 46
2.569124224878326
  0
MTEXT
  5
C0C
330
1F
100
AcDbEntity
  8
文字
  6
Continuous
370
    13
100
AcDbMText
 10
621.210219464769
 20
303.6155507811328
 30
0.0
 40
1.5
 41
9.300692268465596
 46
0.0
 71
     1
 72
     5
  1
{\fMS PGothic|b0|i0|c128|p50;４２}
 73
     1
 44
0.75
101
Embedded Object
 70
     1
 10
1.0
 20
0.0
 30
0.0
 11
621.210219464769
 21
303.6155507811328
 31
0.0
 40
9.300692268465596
 41
0.0
 42
2.68465909090909
 43
1.5
 71
     2
 72
     1
 44
9.300692268465596
 45
0.8849620939533352
 73
     0
 74
     0
 46
2.569124224878326
  0
MTEXT
  5
C0D
330
1F
100
AcDbEntity
  8
文字
  6
Continuous
370
    13
100
AcDbMText
 10
635.5221781298644
 20
344.3874362805778
 30
0.0
 40
1.5
 41
9.300692268465596
 46
0.0
 71
     1
 72
     5
  1
{\fMS PGothic|b0|i0|c128|p50;２１.５}
 73
     1
 44
0.75
101
Embedded Object
 70
     1
 10
1.0
 20
0.0
 30
0.0
 11
635.5221781298644
 21
344.3874362805778
 31
0.0
 40
9.300692268465596
 41
0.0
 42
4.568181818181818
 43
1.5
 71
     2
 72
     1
 44
9.300692268465596
 45
0.8849620939533352
 73
     0
 74
     0
 46
2.569124224878326
  0
MTEXT
  5
C19
330
1F
100
AcDbEntity
  8
文字
  6
Continuous
370
    13
100
AcDbMText
 10
635.5221781298644
 20
340.6809012351737
 30
0.0
 40
1.5
 41
19.48634663088452
 46
0.0
 71
     1
 72
     5
  1
{\fMS PGothic|b0|i0|c128|p50;23\P}
 73
     1
 44
0.75
101
Embedded Object
 70
     1
 10
1.0
 20
0.0
 30
0.0
 11
635.5221781298644
 21
340.6809012351737
 31
0.0
 40
19.48634663088452
 41
0.0
 42
19.48634663088452
 43
1.5
 71
     2
 72
     2
 44
9.300692268465596
 45
0.8849620939533352
 73
     0
 74
     0
 46
2.569124224878326
 46
0.0
  0
MTEXT
  5
C1A
330
1F
100
AcDbEntity
  8
文字
  6
Continuous
370
    13
100
AcDbMText
 10
635.5221781298644
 20
336.9743661897697
 30
0.0
 40
1.5
 41
9.300692268465596
 46
0.0
 71
     1
 72
     5
  1
{\fMS PGothic|b0|i0|c128|p50;30.５}
 73
     1
 44
0.75
101
Embedded Object
 70
     1
 10
1.0
 20
0.0
 30
0.0
 11
635.5221781298644
 21
336.9743661897697
 31
0.0
 40
9.300692268465596
 41
0.0
 42
3.835227272727273
 43
1.5
 71
     2
 72
     1
 44
9.300692268465596
 45
0.8849620939533352
 73
     0
 74
     0
 46
2.569124224878326
  0
MTEXT
  5
C1B
330
1F
100
AcDbEntity
  8
文字
  6
Continuous
370
    13
100
AcDbMText
 10
635.5221781298644
 20
333.2678311443655
 30
0.0
 40
1.5
 41
9.300692268465596
 46
0.0
 71
     1
 72
     5
  1
{\fMS PGothic|b0|i0|c128|p50;３６.５}
 73
     1
 44
0.75
101
Embedded Object
 70
     1
 10
1.0
 20
0.0
 30
0.0
 11
635.5221781298644
 21
333.2678311443655
 31
0.0
 40
9.300692268465596
 41
0.0
 42
4.59375
 43
1.517045454545454
 71
     2
 72
     1
 44
9.300692268465596
 45
0.8849620939533352
 73
     0
 74
     0
 46
2.569124224878326
  0
MTEXT
  5
C1C
330
1F
100
AcDbEntity
  8
文字
  6
Continuous
370
    13
100
AcDbMText
 10
635.5221781298644
 20
329.5612960989615
 30
0.0
 40
1.5
 41
9.300692268465596
 46
0.0
 71
     1
 72
     5
  1
{\fMS PGothic|b0|i0|c128|p50;４５.５}
 73
     1
 44
0.75
101
Embedded Object
 70
     1
 10
1.0
 20
0.0
 30
0.0
 11
635.5221781298644
 21
329.5612960989615
 31
0.0
 40
9.300692268465596
 41
0.0
 42
4.619318181818181
 43
1.5
 71
     2
 72
     1
 44
9.300692268465596
 45
0.8849620939533352
 73
     0
 74
     0
 46
2.569124224878326
  0
MTEXT
  5
C1D
330
1F
100
AcDbEntity
  8
文字
  6
Continuous
370
    13
100
AcDbMText
 10
635.5221781298644
 20
325.8547610535573
 30
0.0
 40
1.5
 41
9.300692268465596
 46
0.0
 71
     1
 72
     5
  1
{\fMS PGothic|b0|i0|c128|p50;５２}
 73
     1
 44
0.75
101
Embedded Object
 70
     1
 10
1.0
 20
0.0
 30
0.0
 11
635.5221781298644
 21
325.8547610535573
 31
0.0
 40
9.300692268465596
 41
0.0
 42
2.650568181818181
 43
1.5
 71
     2
 72
     1
 44
9.300692268465596
 45
0.8849620939533352
 73
     0
 74
     0
 46
2.569124224878326
  0
MTEXT
  5
C1E
330
1F
100
AcDbEntity
  8
文字
  6
Continuous
370
    13
100
AcDbMText
 10
635.5221781298644
 20
322.1482260081533
 30
0.0
 40
1.5
 41
9.300692268465596
 46
0.0
 71
     1
 72
     5
  1
{\fMS PGothic|b0|i0|c128|p50;１９}
 73
     1
 44
0.75
101
Embedded Object
 70
     1
 10
1.0
 20
0.0
 30
0.0
 11
635.5221781298644
 21
322.1482260081533
 31
0.0
 40
9.300692268465596
 41
0.0
 42
2.488636363636363
 43
1.5
 71
     2
 72
     1
 44
9.300692268465596
 45
0.8849620939533352
 73
     0
 74
     0
 46
2.569124224878326
  0
MTEXT
  5
C1F
330
1F
100
AcDbEntity
  8
文字
  6
Continuous
370
    13
100
AcDbMText
 10
635.5221781298644
 20
318.4416909627492
 30
0.0
 40
1.5
 41
9.300692268465596
 46
0.0
 71
     1
 72
     5
  1
{\fMS PGothic|b0|i0|c128|p50;２１}
 73
     1
 44
0.75
101
Embedded Object
 70
     1
 10
1.0
 20
0.0
 30
0.0
 11
635.5221781298644
 21
318.4416909627492
 31
0.0
 40
9.300692268465596
 41
0.0
 42
2.241477272727272
 43
1.5
 71
     2
 72
     1
 44
9.300692268465596
 45
0.8849620939533352
 73
     0
 74
     0
 46
2.569124224878326
  0
MTEXT
  5
C20
330
1F
100
AcDbEntity
  8
文字
  6
Continuous
370
    13
100
AcDbMText
 10
635.5221781298644
 20
314.7351559173451
 30
0.0
 40
1.5
 41
9.300692268465596
 46
0.0
 71
     1
 72
     5
  1
{\fMS PGothic|b0|i0|c128|p50;２７.５}
 73
     1
 44
0.75
101
Embedded Object
 70
     1
 10
1.0
 20
0.0
 30
0.0
 11
635.5221781298644
 21
314.7351559173451
 31
0.0
 40
9.300692268465596
 41
0.0
 42
4.568181818181818
 43
1.5
 71
     2
 72
     1
 44
9.300692268465596
 45
0.8849620939533352
 73
     0
 74
     0
 46
2.569124224878326
  0
MTEXT
  5
C21
330
1F
100
AcDbEntity
  8
文字
  6
Continuous
370
    13
100
AcDbMText
 10
635.5221781298644
 20
311.0286208719409
 30
0.0
 40
1.5
 41
9.300692268465596
 46
0.0
 71
     1
 72
     5
  1
{\fMS PGothic|b0|i0|c128|p50;３４}
 73
     1
 44
0.75
101
Embedded Object
 70
     1
 10
1.0
 20
0.0
 30
0.0
 11
635.5221781298644
 21
311.0286208719409
 31
0.0
 40
9.300692268465596
 41
0.0
 42
2.68465909090909
 43
1.517045454545454
 71
     2
 72
     1
 44
9.300692268465596
 45
0.8849620939533352
 73
     0
 74
     0
 46
2.569124224878326
  0
MTEXT
  5
C22
330
1F
100
AcDbEntity
  8
文字
  6
Continuous
370
    13
100
AcDbMText
 10
635.5221781298644
 20
307.3220858265368
 30
0.0
 40
1.5
 41
9.300692268465596
 46
0.0
 71
     1
 72
     5
  1
{\fMS PGothic|b0|i0|c128|p50;４２}
 73
     1
 44
0.75
101
Embedded Object
 70
     1
 10
1.0
 20
0.0
 30
0.0
 11
635.5221781298644
 21
307.3220858265368
 31
0.0
 40
9.300692268465596
 41
0.0
 42
2.68465909090909
 43
1.5
 71
     2
 72
     1
 44
9.300692268465596
 45
0.8849620939533352
 73
     0
 74
     0
 46
2.569124224878326
  0
MTEXT
  5
C23
330
1F
100
AcDbEntity
  8
文字
  6
Continuous
370
    13
100
AcDbMText
 10
635.5221781298644
 20
303.6155507811327
 30
0.0
 40
1.5
 41
9.300692268465596
 46
0.0
 71
     1
 72
     5
  1
{\fMS PGothic|b0|i0|c128|p50;４８}
 73
     1
 44
0.75
101
Embedded Object
 70
     1
 10
1.0
 20
0.0
 30
0.0
 11
635.5221781298644
 21
303.6155507811327
 31
0.0
 40
9.300692268465596
 41
0.0
 42
2.667613636363636
 43
1.5
 71
     2
 72
     1
 44
9.300692268465596
 45
0.8849620939533352
 73
     0
 74
     0
 46
2.569124224878326
  0
MTEXT
  5
C30
330
1F
100
AcDbEntity
  8
文字
  6
Continuous
370
    13
100
AcDbMText
 10
649.7104096980327
 20
344.3874362805778
 30
0.0
 40
1.5
 41
17.92383618228122
 46
0.0
 71
     1
 72
     5
  1
{\fMS PGothic|b0|i0|c128|p50;５８～１６０}
 73
     1
 44
0.75
101
Embedded Object
 70
     1
 10
1.0
 20
0.0
 30
0.0
 11
649.7104096980327
 21
344.3874362805778
 31
0.0
 40
17.92383618228122
 41
0.0
 42
9.340909090909089
 43
1.5
 71
     2
 72
     1
 44
17.92383618228122
 45
0.8849620939533352
 73
     0
 74
     0
 46
2.569124224878326
  0
MTEXT
  5
C31
330
1F
100
AcDbEntity
  8
文字
  6
Continuous
370
    13
100
AcDbMText
 10
649.7104096980327
 20
340.6809012351737
 30
0.0
 40
1.5
 41
17.92383618228122
 46
0.0
 71
     1
 72
     5
  1
{\fMS PGothic|b0|i0|c128|p50;６２～１６０}
 73
     1
 44
0.75
101
Embedded Object
 70
     1
 10
1.0
 20
0.0
 30
0.0
 11
649.7104096980327
 21
340.6809012351737
 31
0.0
 40
17.92383618228122
 41
0.0
 42
9.340909090909089
 43
1.5
 71
     2
 72
     1
 44
17.92383618228122
 45
0.8849620939533352
 73
     0
 74
     0
 46
2.569124224878326
  0
MTEXT
  5
C32
330
1F
100
AcDbEntity
  8
文字
  6
Continuous
370
    13
100
AcDbMText
 10
649.7104096980327
 20
336.9743661897696
 30
0.0
 40
1.5
 41
17.92383618228122
 46
0.0
 71
     1
 72
     5
  1
{\fMS PGothic|b0|i0|c128|p50;８２～１６０}
 73
     1
 44
0.75
101
Embedded Object
 70
     1
 10
1.0
 20
0.0
 30
0.0
 11
649.7104096980327
 21
336.9743661897696
 31
0.0
 40
17.92383618228122
 41
0.0
 42
9.340909090909089
 43
1.5
 71
     2
 72
     1
 44
17.92383618228122
 45
0.8849620939533352
 73
     0
 74
     0
 46
2.569124224878326
  0
MTEXT
  5
C33
330
1F
100
AcDbEntity
  8
文字
  6
Continuous
370
    13
100
AcDbMText
 10
649.7104096980327
 20
333.2678311443656
 30
0.0
 40
1.5
 41
17.92383618228122
 46
0.0
 71
     1
 72
     5
  1
{\fMS PGothic|b0|i0|c128|p50;９８～１６０}
 73
     1
 44
0.75
101
Embedded Object
 70
     1
 10
1.0
 20
0.0
 30
0.0
 11
649.7104096980327
 21
333.2678311443656
 31
0.0
 40
17.92383618228122
 41
0.0
 42
9.349431818181816
 43
1.5
 71
     2
 72
     1
 44
17.92383618228122
 45
0.8849620939533352
 73
     0
 74
     0
 46
2.569124224878326
  0
MTEXT
  5
C34
330
1F
100
AcDbEntity
  8
文字
  6
Continuous
370
    13
100
AcDbMText
 10
649.7104096980327
 20
329.5612960989614
 30
0.0
 40
1.5
 41
17.92383618228122
 46
0.0
 71
     1
 72
     5
  1
{\fMS PGothic|b0|i0|c128|p50;１２２～１６０}
 73
     1
 44
0.75
101
Embedded Object
 70
     1
 10
1.0
 20
0.0
 30
0.0
 11
649.7104096980327
 21
329.5612960989614
 31
0.0
 40
17.92383618228122
 41
0.0
 42
10.6875
 43
1.5
 71
     2
 72
     1
 44
17.92383618228122
 45
0.8849620939533352
 73
     0
 74
     0
 46
2.569124224878326
  0
MTEXT
  5
C35
330
1F
100
AcDbEntity
  8
文字
  6
Continuous
370
    13
100
AcDbMText
 10
649.7104096980327
 20
325.8547610535574
 30
0.0
 40
1.5
 41
17.92383618228122
 46
0.0
 71
     1
 72
     5
  1
{\fMS PGothic|b0|i0|c128|p50;１３９～１６０}
 73
     1
 44
0.75
101
Embedded Object
 70
     1
 10
1.0
 20
0.0
 30
0.0
 11
649.7104096980327
 21
325.8547610535574
 31
0.0
 40
17.92383618228122
 41
0.0
 42
10.6875
 43
1.517045454545454
 71
     2
 72
     1
 44
17.92383618228122
 45
0.8849620939533352
 73
     0
 74
     0
 46
2.569124224878326
  0
MTEXT
  5
C36
330
1F
100
AcDbEntity
  8
文字
  6
Continuous
370
    13
100
AcDbMText
 10
649.7104096980327
 20
322.1482260081533
 30
0.0
 40
1.5
 41
17.92383618228122
 46
0.0
 71
     1
 72
     5
  1
{\fMS PGothic|b0|i0|c128|p50;５１～１６０}
 73
     1
 44
0.75
101
Embedded Object
 70
     1
 10
1.0
 20
0.0
 30
0.0
 11
649.7104096980327
 21
322.1482260081533
 31
0.0
 40
17.92383618228122
 41
0.0
 42
9.340909090909089
 43
1.5
 71
     2
 72
     1
 44
17.92383618228122
 45
0.8849620939533352
 73
     0
 74
     0
 46
2.569124224878326
  0
MTEXT
  5
C37
330
1F
100
AcDbEntity
  8
文字
  6
Continuous
370
    13
100
AcDbMText
 10
649.7104096980327
 20
318.4416909627492
 30
0.0
 40
1.5
 41
17.92383618228122
 46
0.0
 71
     1
 72
     5
  1
{\fMS PGothic|b0|i0|c128|p50;５６～１６０}
 73
     1
 44
0.75
101
Embedded Object
 70
     1
 10
1.0
 20
0.0
 30
0.0
 11
649.7104096980327
 21
318.4416909627492
 31
0.0
 40
17.92383618228122
 41
0.0
 42
9.340909090909089
 43
1.5
 71
     2
 72
     1
 44
17.92383618228122
 45
0.8849620939533352
 73
     0
 74
     0
 46
2.569124224878326
  0
MTEXT
  5
C38
330
1F
100
AcDbEntity
  8
文字
  6
Continuous
370
    13
100
AcDbMText
 10
649.7104096980327
 20
314.7351559173451
 30
0.0
 40
1.5
 41
17.92383618228122
 46
0.0
 71
     1
 72
     5
  1
{\fMS PGothic|b0|i0|c128|p50;７４～１６０}
 73
     1
 44
0.75
101
Embedded Object
 70
     1
 10
1.0
 20
0.0
 30
0.0
 11
649.7104096980327
 21
314.7351559173451
 31
0.0
 40
17.92383618228122
 41
0.0
 42
9.340909090909089
 43
1.5
 71
     2
 72
     1
 44
17.92383618228122
 45
0.8849620939533352
 73
     0
 74
     0
 46
2.569124224878326
  0
MTEXT
  5
C39
330
1F
100
AcDbEntity
  8
文字
  6
Continuous
370
    13
100
AcDbMText
 10
649.7104096980327
 20
311.0286208719409
 30
0.0
 40
1.5
 41
17.92383618228122
 46
0.0
 71
     1
 72
     5
  1
{\fMS PGothic|b0|i0|c128|p50;９１～１６０}
 73
     1
 44
0.75
101
Embedded Object
 70
     1
 10
1.0
 20
0.0
 30
0.0
 11
649.7104096980327
 21
311.0286208719409
 31
0.0
 40
17.92383618228122
 41
0.0
 42
9.349431818181816
 43
1.5
 71
     2
 72
     1
 44
17.92383618228122
 45
0.8849620939533352
 73
     0
 74
     0
 46
2.569124224878326
  0
MTEXT
  5
C3A
330
1F
100
AcDbEntity
  8
文字
  6
Continuous
370
    13
100
AcDbMText
 10
649.7104096980327
 20
307.3220858265368
 30
0.0
 40
1.5
 41
17.92383618228122
 46
0.0
 71
     1
 72
     5
  1
{\fMS PGothic|b0|i0|c128|p50;１１２～１６０}
 73
     1
 44
0.75
101
Embedded Object
 70
     1
 10
1.0
 20
0.0
 30
0.0
 11
649.7104096980327
 21
307.3220858265368
 31
0.0
 40
17.92383618228122
 41
0.0
 42
10.6875
 43
1.5
 71
     2
 72
     1
 44
17.92383618228122
 45
0.8849620939533352
 73
     0
 74
     0
 46
2.569124224878326
  0
MTEXT
  5
C3B
330
1F
100
AcDbEntity
  8
文字
  6
Continuous
370
    13
100
AcDbMText
 10
649.7104096980327
 20
303.6155507811327
 30
0.0
 40
1.5
 41
17.92383618228122
 46
0.0
 71
     1
 72
     5
  1
{\fMS PGothic|b0|i0|c128|p50;１２８～１６０}
 73
     1
 44
0.75
101
Embedded Object
 70
     1
 10
1.0
 20
0.0
 30
0.0
 11
649.7104096980327
 21
303.6155507811327
 31
0.0
 40
17.92383618228122
 41
0.0
 42
10.6875
 43
1.5
 71
     2
 72
     1
 44
17.92383618228122
 45
0.8849620939533352
 73
     0
 74
     0
 46
2.569124224878326
  0
LINE
  5
C3C
330
1F
100
AcDbEntity
  8
図面枠
  6
Continuous
370
    13
100
AcDbLine
 10
514.117936302452
 20
353.663823340822
 30
0.0
 11
514.117936302452
 21
298.4142544971891
 31
0.0
  0
ENDSEC
  0
SECTION
  2
OBJECTS
  0
DICTIONARY
  5
C
330
0
100
AcDbDictionary
281
     1
  3
ACAD_CIP_PREVIOUS_PRODUCT_INFO
350
216
  3
ACAD_COLOR
350
6B
  3
ACAD_DETAILVIEWSTYLE
350
21B
  3
ACAD_GROUP
350
D
  3
ACAD_LAYOUT
350
1A
  3
ACAD_MATERIAL
350
6A
  3
ACAD_MLEADERSTYLE
350
12D
  3
ACAD_MLINESTYLE
350
17
  3
ACAD_PLOTSETTINGS
350
19
  3
ACAD_PLOTSTYLENAME
350
E
  3
ACAD_SCALELIST
350
10C
  3
ACAD_SECTIONVIEWSTYLE
350
219
  3
ACAD_TABLESTYLE
350
7E
  3
ACAD_VISUALSTYLE
350
EF
  3
ACDB_RECOMPOSE_DATA
350
D5C
  3
AcDbVariableDictionary
350
5E
  0
DICTIONARY
  5
1FF
330
2
100
AcDbDictionary
280
     1
281
     1
  3
ACAD_LAYERSTATES
360
200
  0
DICTIONARY
  5
13C
330
10
100
AcDbDictionary
280
     1
281
     1
  0
DICTIONARY
  5
28E
330
28D
100
AcDbDictionary
280
     1
281
     1
  0
DICTIONARY
  5
1CE
330
1F
100
AcDbDictionary
280
     1
281
     1
  3
ACAD_SORTENTS
360
9D7
  0
XRECORD
  5
216
102
{ACAD_REACTORS
330
C
102
}
330
C
100
AcDbXrecord
280
     1
300
ACDLT
300
2020
300

  0
DICTIONARY
  5
6B
102
{ACAD_REACTORS
330
C
102
}
330
C
100
AcDbDictionary
281
     1
  0
DICTIONARY
  5
21B
102
{ACAD_REACTORS
330
C
102
}
330
C
100
AcDbDictionary
281
     1
  3
Metric50
350
21C
  0
DICTIONARY
  5
D
102
{ACAD_REACTORS
330
C
102
}
330
C
100
AcDbDictionary
281
     1
  0
DICTIONARY
  5
1A
102
{ACAD_REACTORS
330
C
102
}
330
C
100
AcDbDictionary
281
     1
  3
Model
350
22
  3
レイアウト1
350
D3
  3
レイアウト2
350
D7
  0
DICTIONARY
  5
6A
102
{ACAD_REACTORS
330
C
102
}
330
C
100
AcDbDictionary
281
     1
  3
ByBlock
350
ED
  3
ByLayer
350
EC
  3
Global
350
EE
  0
DICTIONARY
  5
12D
102
{ACAD_REACTORS
330
C
102
}
330
C
100
AcDbDictionary
281
     1
  3
Annotative
350
13B
  3
Standard
350
12E
  0
DICTIONARY
  5
17
102
{ACAD_REACTORS
330
C
102
}
330
C
100
AcDbDictionary
281
     1
  3
Standard
350
18
  0
DICTIONARY
  5
19
102
{ACAD_REACTORS
330
C
102
}
330
C
100
AcDbDictionary
281
     1
  3
セットアップ1
350
946
  0
ACDBDICTIONARYWDFLT
  5
E
102
{ACAD_REACTORS
330
C
102
}
330
C
100
AcDbDictionary
281
     1
  3
Normal
350
F
100
AcDbDictionaryWithDefault
340
F
  0
DICTIONARY
  5
10C
102
{ACAD_REACTORS
330
C
102
}
330
C
100
AcDbDictionary
281
     1
  3
A0
350
10D
  3
A1
350
1BE
  3
A2
350
1BF
  3
A3
350
1C0
  3
A4
350
1C1
  3
A5
350
1C2
  3
A6
350
1C3
  3
A7
350
1C4
  3
A8
350
1C5
  3
A9
350
1C6
  3
B0
350
1C7
  3
B1
350
1C8
  3
B2
350
1C9
  3
B3
350
1CA
  3
B4
350
1CB
  3
B5
350
1CC
  3
B6
350
1CD
  0
DICTIONARY
  5
219
102
{ACAD_REACTORS
330
C
102
}
330
C
100
AcDbDictionary
281
     1
  3
Metric50
350
21A
  0
DICTIONARY
  5
7E
102
{ACAD_REACTORS
330
C
102
}
330
C
100
AcDbDictionary
281
     1
  3
Standard
350
7F
  0
DICTIONARY
  5
EF
102
{ACAD_REACTORS
330
C
102
}
330
C
100
AcDbDictionary
281
     1
  3
2dWireframe
350
F5
  3
Basic
350
F4
  3
Brighten
350
FB
  3
ColorChange
350
FF
  3
Conceptual
350
F8
  3
Dim
350
FA
  3
EdgeColorOff
350
1E6
  3
Facepattern
350
FE
  3
Flat
350
F0
  3
FlatWithEdges
350
F1
  3
Gouraud
350
F2
  3
GouraudWithEdges
350
F3
  3
Hidden
350
F7
  3
JitterOff
350
1E4
  3
Linepattern
350
FD
  3
OverhangOff
350
1E5
  3
Realistic
350
F9
  3
Shaded
350
1F3
  3
Shaded with edges
350
1F2
  3
Shades of Gray
350
1EF
  3
Sketchy
350
1F0
  3
Thicken
350
FC
  3
Wireframe
350
F6
  3
X-Ray
350
1F1
  0
XRECORD
  5
D5C
102
{ACAD_REACTORS
330
C
102
}
330
C
100
AcDbXrecord
280
     1
 90
        1
330
7F
330
8AC
330
8B0
330
AF6
  0
DICTIONARY
  5
5E
102
{ACAD_REACTORS
330
C
102
}
330
C
100
AcDbDictionary
281
     1
  3
CANNOSCALE
350
146
  3
CENTEREXE
350
259
  3
CENTERLTYPEFILE
350
25A
  3
CMLEADERSTYLE
350
145
  3
CTABLESTYLE
350
84
  3
CVIEWDETAILSTYLE
350
227
  3
CVIEWSECTIONSTYLE
350
228
  3
DIMASSOC
350
5F
  3
HIDETEXT
350
63
  3
HPCOLOR
350
9E9
  3
HPTRANSPARENCY
350
9E8
  3
LAYEREVAL
350
1AE
  3
LAYERNOTIFY
350
1AF
  0
DICTIONARY
  5
200
102
{ACAD_REACTORS
330
1FF
102
}
330
1FF
100
AcDbDictionary
281
     1
  0
SORTENTSTABLE
  5
9D7
102
{ACAD_REACTORS
330
1CE
102
}
330
1CE
100
AcDbSortentsTable
330
1F
331
468
  5
46A
331
46A
  5
46B
331
46B
  5
46C
331
46C
  5
46D
331
46D
  5
46E
331
46E
  5
46F
331
46F
  5
470
331
470
  5
471
331
471
  5
472
331
472
  5
473
331
473
  5
474
331
474
  5
476
331
476
  5
477
331
477
  5
478
331
478
  5
479
331
479
  5
47A
331
47A
  5
47B
331
47B
  5
47C
331
47C
  5
47D
331
47D
  5
47E
331
47E
  5
47F
331
47F
  5
482
331
482
  5
776
331
776
  5
777
331
777
  5
778
331
778
  5
779
331
779
  5
77A
331
77A
  5
77B
331
77B
  5
77C
331
77C
  5
77E
331
77D
  5
79B
331
77E
  5
7A5
331
77F
  5
7A6
331
786
  5
7A7
331
796
  5
7B3
331
797
  5
7B5
331
798
  5
7B7
331
799
  5
7B8
331
79A
  5
7B9
331
79B
  5
7BA
331
79F
  5
7BB
331
7A4
  5
7BC
331
7A5
  5
7BD
331
7A6
  5
7BE
331
7A7
  5
7BF
331
7AE
  5
7C0
331
7AF
  5
7C1
331
7B0
  5
7C2
331
7B1
  5
7C3
331
7B2
  5
7C4
331
7B3
  5
7C5
331
7B4
  5
7C6
331
7B5
  5
7C7
331
7B6
  5
7C8
331
7B7
  5
7CC
331
7B8
  5
7CD
331
7B9
  5
7CE
331
7BA
  5
7CF
331
7BB
  5
7D0
331
7BC
  5
7D1
331
7BD
  5
7D2
331
7BE
  5
7D3
331
7BF
  5
7D4
331
7C0
  5
7D5
331
7C1
  5
7D6
331
7C2
  5
7D7
331
7C3
  5
7D8
331
7C4
  5
7D9
331
7C5
  5
7DA
331
7C6
  5
7DB
331
7C7
  5
7DC
331
7C8
  5
7DD
331
7CC
  5
7DE
331
7CD
  5
7DF
331
7CE
  5
7E0
331
7CF
  5
7E1
331
7D0
  5
7E2
331
7D1
  5
7E3
331
7D2
  5
7E4
331
7D3
  5
7E5
331
7D4
  5
7E6
331
7D5
  5
7E7
331
7D6
  5
7E8
331
7D7
  5
7E9
331
7D8
  5
7EA
331
7D9
  5
7EB
331
7DA
  5
7EC
331
7DB
  5
7ED
331
7DC
  5
7EE
331
7DD
  5
7EF
331
7DE
  5
7F0
331
7DF
  5
7F1
331
7E0
  5
7F2
331
7E1
  5
7F3
331
7E2
  5
7F4
331
7E3
  5
7F5
331
7E4
  5
7F6
331
7E5
  5
7F7
331
7E6
  5
7F8
331
7E7
  5
7F9
331
7E8
  5
7FC
331
7E9
  5
7FD
331
7EA
  5
7FE
331
7EB
  5
7FF
331
7EC
  5
800
331
7ED
  5
801
331
7EE
  5
858
331
7EF
  5
85B
331
7F0
  5
86D
331
7F1
  5
86E
331
7F2
  5
873
331
7F3
  5
875
331
7F4
  5
876
331
7F5
  5
877
331
7F6
  5
878
331
7F7
  5
879
331
7F8
  5
87F
331
7F9
  5
880
331
7FC
  5
881
331
7FD
  5
882
331
7FE
  5
883
331
7FF
  5
889
331
800
  5
8AC
331
801
  5
8AD
331
858
  5
8AE
331
85B
  5
8AF
331
86D
  5
8B0
331
86E
  5
8B1
331
873
  5
8B2
331
875
  5
8B3
331
876
  5
8B4
331
877
  5
8B5
331
878
  5
8B6
331
879
  5
932
331
87F
  5
934
331
880
  5
98F
331
881
  5
99A
331
882
  5
99B
331
883
  5
9D4
331
889
  5
9D5
331
8AC
  5
9D6
331
8AD
  5
9D8
331
8AE
  5
9E3
331
8AF
  5
9F5
331
8B0
  5
9F6
331
8B1
  5
9F7
331
8B2
  5
9F8
331
8B3
  5
9FA
331
8B4
  5
9FB
331
8B5
  5
9FC
331
932
  5
A03
331
934
  5
A04
331
98F
  5
A05
331
999
  5
A06
331
99A
  5
A07
331
99B
  5
A08
331
9D4
  5
A09
331
9F2
  5
79F
331
9F5
  5
A0B
331
9F6
  5
A0C
331
9F7
  5
A40
331
9F8
  5
A41
331
A3F
  5
7B6
331
A40
  5
A7C
331
A41
  5
A7D
331
A7C
  5
A7E
331
A7D
  5
A7F
331
A7E
  5
A80
331
A7F
  5
A81
331
A80
  5
A82
331
A81
  5
A85
331
A82
  5
A87
331
A85
  5
A88
331
A87
  5
A89
331
A88
  5
A8A
331
A89
  5
A8B
331
A8A
  5
A8C
331
A8B
  5
A8D
331
A8C
  5
A8E
331
A8D
  5
A8F
331
A8E
  5
A90
331
A8F
  5
A91
331
A90
  5
A92
331
A91
  5
A93
331
A92
  5
A94
331
A93
  5
A95
331
A94
  5
A96
331
A95
  5
A97
331
A96
  5
A98
331
A97
  5
A99
331
A98
  5
A9A
331
A99
  5
A9B
331
A9A
  5
A9C
331
A9B
  5
A9D
331
A9C
  5
A9E
331
A9D
  5
A9F
331
A9E
  5
AA0
331
A9F
  5
AA1
331
AA0
  5
AA2
331
AA1
  5
AA3
331
AA2
  5
AA4
331
AA3
  5
AA5
331
AA4
  5
AA6
331
AA5
  5
AA7
331
AA6
  5
AA8
331
AA7
  5
AA9
331
AA8
  5
AAA
331
AA9
  5
AAB
331
AAA
  5
AAC
331
AAB
  5
AAD
331
AAC
  5
AAE
331
AAD
  5
AAF
331
AAE
  5
AB0
331
AAF
  5
AB1
331
AB0
  5
AB2
331
AB1
  5
AB3
331
AB2
  5
AB4
331
AB3
  5
AB5
331
AB4
  5
AB6
331
AB5
  5
AB7
331
AB6
  5
AB8
331
AB7
  5
AB9
331
AB8
  5
ABA
331
AB9
  5
ABB
331
ABA
  5
ABC
331
ABB
  5
ABD
331
ABC
  5
ABE
331
ABD
  5
ABF
331
ABE
  5
AC0
331
ABF
  5
AC1
331
AC0
  5
AC2
331
AC1
  5
AC3
331
AC2
  5
AC4
331
AC3
  5
AC5
331
AC4
  5
AC6
331
AC5
  5
AC7
331
AC6
  5
AC8
331
AC7
  5
AC9
331
AC8
  5
ACA
331
AC9
  5
ACB
331
ACA
  5
ACC
331
ACB
  5
ACD
331
ACC
  5
ACE
331
ACD
  5
ACF
331
ACE
  5
AD0
331
ACF
  5
AD1
331
AD0
  5
AD2
331
AD1
  5
AD3
331
AD2
  5
AD4
331
AD3
  5
AD5
331
AD4
  5
AD6
331
AD5
  5
AD7
331
AD6
  5
AD8
331
AD7
  5
AD9
331
AD8
  5
ADA
331
AD9
  5
ADB
331
ADA
  5
ADC
331
ADB
  5
ADD
331
ADC
  5
ADE
331
ADD
  5
ADF
331
ADE
  5
AE0
331
ADF
  5
AE1
331
AE0
  5
AE2
331
AE1
  5
AE3
331
AE2
  5
AE4
331
AE3
  5
AE5
331
AE4
  5
AE6
331
AE5
  5
AE7
331
AE6
  5
AE8
331
AE7
  5
AE9
331
AE8
  5
AEA
331
AE9
  5
AEB
331
AEA
  5
AEC
331
AEB
  5
AED
331
AEC
  5
AEE
331
AED
  5
AEF
331
AEE
  5
AF0
331
AEF
  5
AF1
331
AF0
  5
AF2
331
AF1
  5
AF4
331
AF3
  5
AF6
331
AF4
  5
AF7
331
AF6
  5
AF8
331
AF7
  5
AF9
331
AF8
  5
AFA
331
AF9
  5
AFB
331
AFA
  5
AFC
331
AFB
  5
AFD
331
AFC
  5
AFE
331
AFD
  5
AFF
331
AFE
  5
B00
331
AFF
  5
B01
331
B00
  5
B02
331
B01
  5
B04
331
B02
  5
B05
331
B03
  5
B06
331
B04
  5
B43
331
B05
  5
B44
331
B06
  5
B60
331
B43
  5
A0A
331
B44
  5
B03
331
B60
  5
B61
331
B61
  5
BDF
331
BDF
  5
BE0
331
BE0
  5
BE3
331
BE3
  5
BE4
331
BE4
  5
BE5
331
BE5
  5
BE6
331
BE6
  5
BE7
331
BE7
  5
BE8
331
BE8
  5
BE9
331
BE9
  5
BEA
331
BEA
  5
BEB
331
BEB
  5
BEC
331
BEC
  5
BED
331
BED
  5
BEE
331
BEE
  5
BEF
331
BEF
  5
BF0
331
BF0
  5
BF1
331
BF1
  5
BF2
331
BF2
  5
BF3
331
BF3
  5
BF4
331
BF4
  5
BF5
331
BF5
  5
BF6
331
BF6
  5
BF7
331
BF7
  5
BF8
331
BF8
  5
BF9
331
BF9
  5
BFA
331
BFA
  5
BFB
331
BFB
  5
BFC
331
BFC
  5
BFD
331
BFD
  5
BFE
331
BFE
  5
BFF
331
BFF
  5
C07
331
C07
  5
C08
331
C08
  5
C09
331
C09
  5
C0A
331
C0A
  5
C0B
331
C0B
  5
C0C
331
C0C
  5
C0D
331
C0D
  5
C19
331
C19
  5
C1A
331
C1A
  5
C1B
331
C1B
  5
C1C
331
C1C
  5
C1D
331
C1D
  5
C1E
331
C1E
  5
C1F
331
C1F
  5
C20
331
C20
  5
C21
331
C21
  5
C22
331
C22
  5
C23
331
C23
  5
C30
331
C30
  5
C31
331
C31
  5
C32
331
C32
  5
C33
331
C33
  5
C34
331
C34
  5
C35
331
C35
  5
C36
331
C36
  5
C37
331
C37
  5
C38
331
C38
  5
C39
331
C39
  5
C3A
331
C3A
  5
C3B
331
C3B
  5
C3C
331
C3C
  5
468
  0
ACDBDETAILVIEWSTYLE
  5
21C
102
{ACAD_REACTORS
330
21B
102
}
330
21B
100
AcDbModelDocViewStyle
 70
     0
  3
Metric50
290
     0
300
Metric50
 90
        0
100
AcDbDetailViewStyle
 70
     0
 71
     0
 90
        3
 71
     1
340
11
 62
   256
 40
5.0
340
0
 62
   256
 40
5.0
300

 40
0.0
280
     1
 71
     2
340
16
 90
       25
 62
   256
 71
     3
340
11
 62
   256
 40
5.0
 90
        0
 40
15.0
 90
        1
300
%<\AcVar ViewDetailId>% (%<\AcVar ViewScale \f "%sn">%)
 71
     4
340
16
 90
       25
 62
   256
340
16
 90
       25
 62
   256
280
     0
  0
LAYOUT
  5
22
102
{ACAD_XDICTIONARY
360
205
102
}
102
{ACAD_REACTORS
330
1A
102
}
330
1A
100
AcDbPlotSettings
  1
セットアップ1
  2
Adobe PDF
  4
A4
  6

 40
3.174999952316284
 41
3.174999952316284
 42
3.175003051757812
 43
3.17498779296875
 44
209.9733276367187
 45
297.0318298339844
 46
0.0
 47
1.3501414826938
 48
472.0986167291475
 49
293.448747964082
140
682.0986167291476
141
590.4487479640819
142
1.0
143
1.031316036013356
 70
 11956
 72
     1
 73
     0
 74
     4
  7

 75
     0
147
0.9696348792030697
 76
     0
 77
     2
 78
   300
148
-472.0986167291475
149
-293.448747964082
100
AcDbLayout
  1
Model
 70
     1
 71
     0
 10
0.0
 20
0.0
 11
12.0
 21
9.0
 12
0.0
 22
0.0
 32
0.0
 14
0.0
 24
0.0
 34
0.0
 15
0.0
 25
0.0
 35
0.0
146
0.0
 13
0.0
 23
0.0
 33
0.0
 16
1.0
 26
0.0
 36
0.0
 17
0.0
 27
1.0
 37
0.0
 76
     0
330
1F
331
EA
1001
ACAD_PSEXT
1000
Adobe PDF
1000
Adobe PDF Converter
1000
Documents\*.pdf
1000

1070
     0
  0
LAYOUT
  5
D3
102
{ACAD_REACTORS
330
1A
102
}
330
1A
100
AcDbPlotSettings
  1

  2
C:\Documents and Settings\basas\Application Data\Autodesk\AutoCAD 2005\R16.1\enu\plotters\Default Windows System Printer.pc3
  4

  6

 40
0.0
 41
0.0
 42
0.0
 43
0.0
 44
0.0
 45
0.0
 46
0.0
 47
0.0
 48
0.0
 49
0.0
140
0.0
141
0.0
142
1.0
143
1.0
 70
   688
 72
     0
 73
     0
 74
     5
  7

 75
    16
147
1.0
 76
     0
 77
     2
 78
   300
148
0.0
149
0.0
100
AcDbLayout
  1
レイアウト1
 70
     1
 71
     1
 10
0.0
 20
0.0
 11
12.0
 21
9.0
 12
0.0
 22
0.0
 32
0.0
 14
0.0
 24
0.0
 34
0.0
 15
0.0
 25
0.0
 35
0.0
146
0.0
 13
0.0
 23
0.0
 33
0.0
 16
1.0
 26
0.0
 36
0.0
 17
0.0
 27
1.0
 37
0.0
 76
     0
330
D2
  0
LAYOUT
  5
D7
102
{ACAD_REACTORS
330
1A
102
}
330
1A
100
AcDbPlotSettings
  1

  2
C:\Documents and Settings\basas\Application Data\Autodesk\AutoCAD 2005\R16.1\enu\plotters\Default Windows System Printer.pc3
  4

  6

 40
0.0
 41
0.0
 42
0.0
 43
0.0
 44
0.0
 45
0.0
 46
0.0
 47
0.0
 48
0.0
 49
0.0
140
0.0
141
0.0
142
1.0
143
1.0
 70
   688
 72
     0
 73
     0
 74
     5
  7

 75
    16
147
1.0
 76
     0
 77
     2
 78
   300
148
0.0
149
0.0
100
AcDbLayout
  1
レイアウト2
 70
     1
 71
     2
 10
0.0
 20
0.0
 11
12.0
 21
9.0
 12
0.0
 22
0.0
 32
0.0
 14
0.0
 24
0.0
 34
0.0
 15
0.0
 25
0.0
 35
0.0
146
0.0
 13
0.0
 23
0.0
 33
0.0
 16
1.0
 26
0.0
 36
0.0
 17
0.0
 27
1.0
 37
0.0
 76
     0
330
D6
  0
MATERIAL
  5
ED
102
{ACAD_XDICTIONARY
360
1F9
102
}
102
{ACAD_REACTORS
330
6A
102
}
330
6A
100
AcDbMaterial
  1
ByBlock
 94
       63
  0
MATERIAL
  5
EC
102
{ACAD_XDICTIONARY
360
1F7
102
}
102
{ACAD_REACTORS
330
6A
102
}
330
6A
100
AcDbMaterial
  1
ByLayer
 94
       63
  0
MATERIAL
  5
EE
102
{ACAD_XDICTIONARY
360
173
102
}
102
{ACAD_REACTORS
330
6A
102
}
330
6A
100
AcDbMaterial
  1
Global
 43
0.0007999999797903
 43
0.0
 43
0.0
 43
0.0
 43
0.0
 43
0.0007999999797903
 43
0.0
 43
0.0
 43
0.0
 43
0.0
 43
1.0
 43
0.0
 43
0.0
 43
0.0
 43
0.0
 43
1.0
 49
0.0007999999797903
 49
0.0
 49
0.0
 49
0.0
 49
0.0
 49
0.0007999999797903
 49
0.0
 49
0.0
 49
0.0
 49
0.0
 49
1.0
 49
0.0
 49
0.0
 49
0.0
 49
0.0
 49
1.0
142
0.0007999999797903
142
0.0
142
0.0
142
0.0
142
0.0
142
0.0007999999797903
142
0.0
142
0.0
142
0.0
142
0.0
142
1.0
142
0.0
142
0.0
142
0.0
142
0.0
142
1.0
144
0.0007999999797903
144
0.0
144
0.0
144
0.0
144
0.0
144
0.0007999999797903
144
0.0
144
0.0
144
0.0
144
0.0
144
1.0
144
0.0
144
0.0
144
0.0
144
0.0
144
1.0
 94
       63
1001
ACAD
1070
    -1
1070
     3
1070
     0
1000

1071
        0
1070
     0
  0
MLEADERSTYLE
  5
13B
102
{ACAD_REACTORS
330
12D
102
}
330
12D
100
AcDbMLeaderStyle
179
     2
170
     2
171
     1
172
     0
 90
        2
 40
0.0
 41
0.0
173
     1
 91
-1056964608
340
14
 92
       -2
290
     1
 42
2.0
291
     1
 43
8.0
  3
Standard
 44
4.0
300

342
11
174
     1
178
     1
175
     1
176
     0
 93
-1056964608
 45
4.0
292
     0
297
     0
 46
4.0
 94
-1056964608
 47
1.0
 49
1.0
140
1.0
293
     1
141
0.0
294
     1
177
     0
142
1.0
295
     0
296
     1
143
3.75
271
     0
272
     9
273
     9
298
     0
  0
MLEADERSTYLE
  5
12E
102
{ACAD_REACTORS
330
12D
330
8AD
330
8AE
330
8AF
330
8B5
330
AF3
330
AF4
330
AFB
102
}
330
12D
100
AcDbMLeaderStyle
179
     2
170
     2
171
     1
172
     0
 90
        2
 40
0.0
 41
0.0
173
     1
 91
-1056964608
340
14
 92
       -2
290
     1
 42
2.0
291
     1
 43
8.0
  3
Standard
 44
4.0
300

342
11
174
     1
178
     1
175
     1
176
     0
 93
-1056964608
 45
4.0
292
     0
297
     0
 46
4.0
 94
-1056964608
 47
1.0
 49
1.0
140
1.0
293
     1
141
0.0
294
     1
177
     0
142
1.0
295
     0
296
     0
143
3.75
271
     0
272
     9
273
     9
298
     0
  0
MLINESTYLE
  5
18
102
{ACAD_REACTORS
330
17
102
}
330
17
100
AcDbMlineStyle
  2
STANDARD
 70
     0
  3

 62
   256
 51
90.0
 52
90.0
 71
     2
 49
0.5
 62
   256
  6
BYLAYER
 49
-0.5
 62
   256
  6
BYLAYER
  0
PLOTSETTINGS
  5
946
102
{ACAD_REACTORS
330
19
102
}
330
19
100
AcDbPlotSettings
  1
セットアップ1
  2
Adobe PDF
  4
A4
  6

 40
3.174999952316284
 41
3.174999952316284
 42
3.175003051757812
 43
3.17498779296875
 44
209.9733276367187
 45
297.0318298339844
 46
0.0
 47
1.3501414826938
 48
472.0986167291475
 49
293.448747964082
140
682.0986167291476
141
590.4487479640819
142
1.0
143
1.031316036013356
 70
 11956
 72
     1
 73
     0
 74
     4
  7

 75
     0
147
0.9696348792030697
 76
     0
 77
     2
 78
   300
148
-472.0986167291475
149
-293.448747964082
1001
ACAD_PSEXT
1000
Adobe PDF
1000
Adobe PDF Converter
1000
Documents\*.pdf
1000

1070
     0
  0
ACDBPLACEHOLDER
  5
F
102
{ACAD_REACTORS
330
E
102
}
330
E
  0
SCALE
  5
10D
102
{ACAD_REACTORS
330
10C
102
}
330
10C
100
AcDbScale
 70
     0
300
1:1
140
1.0
141
1.0
290
     1
  0
SCALE
  5
1BE
102
{ACAD_REACTORS
330
10C
102
}
330
10C
100
AcDbScale
 70
     0
300
1:2
140
1.0
141
2.0
290
     0
  0
SCALE
  5
1BF
102
{ACAD_REACTORS
330
10C
102
}
330
10C
100
AcDbScale
 70
     0
300
1:4
140
1.0
141
4.0
290
     0
  0
SCALE
  5
1C0
102
{ACAD_REACTORS
330
10C
102
}
330
10C
100
AcDbScale
 70
     0
300
1:5
140
1.0
141
5.0
290
     0
  0
SCALE
  5
1C1
102
{ACAD_REACTORS
330
10C
102
}
330
10C
100
AcDbScale
 70
     0
300
1:8
140
1.0
141
8.0
290
     0
  0
SCALE
  5
1C2
102
{ACAD_REACTORS
330
10C
102
}
330
10C
100
AcDbScale
 70
     0
300
1:10
140
1.0
141
10.0
290
     0
  0
SCALE
  5
1C3
102
{ACAD_REACTORS
330
10C
102
}
330
10C
100
AcDbScale
 70
     0
300
1:16
140
1.0
141
16.0
290
     0
  0
SCALE
  5
1C4
102
{ACAD_REACTORS
330
10C
102
}
330
10C
100
AcDbScale
 70
     0
300
1:20
140
1.0
141
20.0
290
     0
  0
SCALE
  5
1C5
102
{ACAD_REACTORS
330
10C
102
}
330
10C
100
AcDbScale
 70
     0
300
1:30
140
1.0
141
30.0
290
     0
  0
SCALE
  5
1C6
102
{ACAD_REACTORS
330
10C
102
}
330
10C
100
AcDbScale
 70
     0
300
1:40
140
1.0
141
40.0
290
     0
  0
SCALE
  5
1C7
102
{ACAD_REACTORS
330
10C
102
}
330
10C
100
AcDbScale
 70
     0
300
1:50
140
1.0
141
50.0
290
     0
  0
SCALE
  5
1C8
102
{ACAD_REACTORS
330
10C
102
}
330
10C
100
AcDbScale
 70
     0
300
1:100
140
1.0
141
100.0
290
     0
  0
SCALE
  5
1C9
102
{ACAD_REACTORS
330
10C
102
}
330
10C
100
AcDbScale
 70
     0
300
2:1
140
2.0
141
1.0
290
     0
  0
SCALE
  5
1CA
102
{ACAD_REACTORS
330
10C
102
}
330
10C
100
AcDbScale
 70
     0
300
4:1
140
4.0
141
1.0
290
     0
  0
SCALE
  5
1CB
102
{ACAD_REACTORS
330
10C
102
}
330
10C
100
AcDbScale
 70
     0
300
8:1
140
8.0
141
1.0
290
     0
  0
SCALE
  5
1CC
102
{ACAD_REACTORS
330
10C
102
}
330
10C
100
AcDbScale
 70
     0
300
10:1
140
10.0
141
1.0
290
     0
  0
SCALE
  5
1CD
102
{ACAD_REACTORS
330
10C
102
}
330
10C
100
AcDbScale
 70
     0
300
100:1
140
100.0
141
1.0
290
     0
  0
ACDBSECTIONVIEWSTYLE
  5
21A
102
{ACAD_REACTORS
330
219
102
}
330
219
100
AcDbModelDocViewStyle
 70
     0
  3
Metric50
290
     0
300
Metric50
 90
        0
100
AcDbSectionViewStyle
 70
     0
 71
     0
 90
      102
 71
     1
340
11
 62
   256
 40
5.0
340
0
340
0
 62
   256
 40
5.0
300
I, O, Q, S, X, Z
 40
10.0
 90
        0
 40
2.5
 90
        0
 71
     2
340
16
 90
       25
 62
   256
340
16
 90
       50
 62
   256
 40
5.0
 40
2.5
 40
5.0
 71
     3
340
11
 62
   256
 40
5.0
 90
        0
 40
15.0
 90
        1
300
%<\AcVar ViewSectionStartId>%-%<\AcVar ViewSectionEndId>% (%<\AcVar ViewScale \f "%sn">%)
 71
     4
 62
   256
 62
   257
300
ANSI31
 40
1.0
 90
        0
290
     0
290
     0
 90
        6
 40
0.0
 40
1.570796326794896
 40
0.2617993877991494
 40
1.308996938995747
 40
-0.2617993877991494
 40
1.832595714594046
  0
TABLESTYLE
  5
7F
102
{ACAD_XDICTIONARY
360
162
102
}
102
{ACAD_REACTORS
330
7E
102
}
330
7E
100
AcDbTableStyle
280
     0
  3
Standard
 70
     0
 71
     0
 40
1.5
 41
1.5
280
     0
281
     0
  7
Standard
140
4.5
170
     2
 62
     0
 63
     7
283
     0
 90
      512
 91
        0
  1

274
    -2
284
     1
 64
     0
275
    -2
285
     1
 65
     0
276
    -2
286
     1
 66
     0
277
    -2
287
     1
 67
     0
278
    -2
288
     1
 68
     0
279
    -2
289
     1
 69
     0
  7
Standard
140
6.0
170
     5
 62
     0
 63
     7
283
     0
 90
      512
 91
        0
  1

274
    -2
284
     1
 64
     0
275
    -2
285
     1
 65
     0
276
    -2
286
     1
 66
     0
277
    -2
287
     1
 67
     0
278
    -2
288
     1
 68
     0
279
    -2
289
     1
 69
     0
  7
Standard
140
4.5
170
     5
 62
     0
 63
     7
283
     0
 90
      512
 91
        0
  1

274
    -2
284
     1
 64
     0
275
    -2
285
     1
 65
     0
276
    -2
286
     1
 66
     0
277
    -2
287
     1
 67
     0
278
    -2
288
     1
 68
     0
279
    -2
289
     1
 69
     0
  0
VISUALSTYLE
  5
F5
102
{ACAD_REACTORS
330
EF
102
}
330
EF
100
AcDbVisualStyle
  2
2dWireframe
 70
     4
177
     3
291
     0
 70
    58
 90
        0
176
     1
 90
        2
176
     1
 90
        1
176
     1
 90
        0
176
     1
 40
0.6
176
     1
 40
30.0
176
     1
 62
     7
420
 16777215
176
     1
 90
        1
176
     1
 90
        4
176
     1
 62
     7
176
     1
 62
   257
176
     1
 90
        1
176
     1
 90
        1
176
     1
 40
1.0
176
     1
 90
        0
176
     1
 62
   257
176
     1
 40
1.0
176
     1
 90
        1
176
     1
 90
        6
176
     1
 90
        2
176
     1
 62
     7
176
     1
 90
        5
176
     1
 90
        0
176
     1
 90
        0
176
     1
290
     0
176
     1
 90
        1
176
     1
 40
0.0
176
     1
 90
        0
176
     1
290
     1
176
     1
290
     1
176
     1
290
     0
176
     1
290
     0
176
     1
290
     0
176
     1
290
     0
176
     1
290
     0
176
     1
290
     0
176
     1
290
     0
176
     1
 90
       50
176
     1
 40
0.0
176
     1
 40
1.0
176
     1
 90
        0
176
     1
 62
    18
420
        0
176
     1
 90
       50
176
     1
 90
        3
176
     1
 62
     5
420
      255
176
     1
290
     0
176
     1
 90
       50
176
     1
 90
       50
176
     1
 90
       50
176
     1
290
     0
176
     1
 90
       50
176
     1
 62
   256
176
     0
 40
1.0
176
     0
 90
        2
176
     1
  1
strokes_ogs.tif
176
     1
290
     0
176
     1
 40
1.0
176
     1
 40
1.0
176
     1
  0
VISUALSTYLE
  5
F4
102
{ACAD_REACTORS
330
EF
102
}
330
EF
100
AcDbVisualStyle
  2
Basic
 70
     7
177
     3
291
     1
 70
    58
 90
        1
176
     1
 90
        0
176
     1
 90
        1
176
     1
 90
        0
176
     1
 40
0.6
176
     1
 40
30.0
176
     1
 62
     7
420
 16777215
176
     1
 90
        0
176
     1
 90
        4
176
     1
 62
     7
176
     1
 62
   257
176
     1
 90
        1
176
     1
 90
        1
176
     1
 40
1.0
176
     1
 90
        8
176
     1
 62
     7
176
     1
 40
1.0
176
     1
 90
        1
176
     1
 90
        6
176
     1
 90
        2
176
     1
 62
     7
176
     1
 90
        5
176
     1
 90
        0
176
     1
 90
        0
176
     1
290
     0
176
     1
 90
        1
176
     1
 40
0.0
176
     1
 90
        0
176
     1
290
     0
176
     1
290
     1
176
     1
290
     1
176
     1
290
     0
176
     1
290
     0
176
     1
290
     0
176
     1
290
     0
176
     1
290
     0
176
     1
290
     0
176
     1
 90
       50
176
     1
 40
0.0
176
     1
 40
1.0
176
     1
 90
        0
176
     1
 62
    18
420
        0
176
     1
 90
       50
176
     1
 90
        3
176
     1
 62
     5
420
      255
176
     1
290
     0
176
     1
 90
       50
176
     1
 90
       50
176
     1
 90
       50
176
     1
290
     0
176
     1
 90
       50
176
     1
 62
   256
176
     0
 40
1.0
176
     0
 90
        2
176
     1
  1
strokes_ogs.tif
176
     1
290
     0
176
     1
 40
1.0
176
     1
 40
1.0
176
     1
  0
VISUALSTYLE
  5
FB
102
{ACAD_REACTORS
330
EF
102
}
330
EF
100
AcDbVisualStyle
  2
Brighten
 70
    12
177
     3
291
     1
 70
    58
 90
        2
176
     1
 90
        2
176
     1
 90
        1
176
     1
 90
        0
176
     1
 40
0.6
176
     1
 40
30.0
176
     1
 62
     7
420
 16777215
176
     1
 90
        1
176
     1
 90
        4
176
     1
 62
     7
176
     1
 62
   257
176
     1
 90
        1
176
     1
 90
        1
176
     1
 40
1.0
176
     1
 90
        8
176
     1
 62
     7
176
     1
 40
1.0
176
     1
 90
        1
176
     1
 90
        6
176
     1
 90
        2
176
     1
 62
     7
176
     1
 90
        5
176
     1
 90
        0
176
     1
 90
        0
176
     1
290
     0
176
     1
 90
        1
176
     1
 40
50.0
176
     1
 90
        0
176
     1
290
     0
176
     1
290
     1
176
     1
290
     1
176
     1
290
     0
176
     1
290
     0
176
     1
290
     0
176
     1
290
     0
176
     1
290
     0
176
     1
290
     0
176
     1
 90
       50
176
     1
 40
0.0
176
     1
 40
1.0
176
     1
 90
        0
176
     1
 62
    18
420
        0
176
     1
 90
       50
176
     1
 90
        3
176
     1
 62
     5
420
      255
176
     1
290
     0
176
     1
 90
       50
176
     1
 90
       50
176
     1
 90
       50
176
     1
290
     0
176
     1
 90
       50
176
     1
 62
   256
176
     0
 40
1.0
176
     0
 90
        2
176
     1
  1
strokes_ogs.tif
176
     1
290
     0
176
     1
 40
1.0
176
     1
 40
1.0
176
     1
  0
VISUALSTYLE
  5
FF
102
{ACAD_REACTORS
330
EF
102
}
330
EF
100
AcDbVisualStyle
  2
ColorChange
 70
    16
177
     3
291
     1
 70
    58
 90
        2
176
     1
 90
        2
176
     1
 90
        3
176
     1
 90
        0
176
     1
 40
0.6
176
     1
 40
30.0
176
     1
 62
     8
420
  8421504
176
     1
 90
        1
176
     1
 90
        4
176
     1
 62
     7
176
     1
 62
   257
176
     1
 90
        1
176
     1
 90
        1
176
     1
 40
1.0
176
     1
 90
        8
176
     1
 62
     8
420
  8421504
176
     1
 40
1.0
176
     1
 90
        1
176
     1
 90
        6
176
     1
 90
        2
176
     1
 62
     7
176
     1
 90
        5
176
     1
 90
        0
176
     1
 90
        0
176
     1
290
     0
176
     1
 90
        1
176
     1
 40
0.0
176
     1
 90
        0
176
     1
290
     0
176
     1
290
     1
176
     1
290
     1
176
     1
290
     0
176
     1
290
     0
176
     1
290
     0
176
     1
290
     0
176
     1
290
     0
176
     1
290
     0
176
     1
 90
       50
176
     1
 40
0.0
176
     1
 40
1.0
176
     1
 90
        0
176
     1
 62
    18
420
        0
176
     1
 90
       50
176
     1
 90
        3
176
     1
 62
     5
420
      255
176
     1
290
     0
176
     1
 90
       50
176
     1
 90
       50
176
     1
 90
       50
176
     1
290
     0
176
     1
 90
       50
176
     1
 62
   256
176
     0
 40
1.0
176
     0
 90
        2
176
     1
  1
strokes_ogs.tif
176
     1
290
     0
176
     1
 40
1.0
176
     1
 40
1.0
176
     1
  0
VISUALSTYLE
  5
F8
102
{ACAD_REACTORS
330
EF
102
}
330
EF
100
AcDbVisualStyle
  2
Conceptual
 70
     9
177
     3
291
     0
 70
    58
 90
        3
176
     1
 90
        2
176
     1
 90
        1
176
     1
 90
        0
176
     1
 40
0.6
176
     1
 40
30.0
176
     1
 62
     7
420
 16777215
176
     1
 90
        2
176
     1
 90
        2
176
     1
 62
     7
176
     1
 62
   257
176
     1
 90
        1
176
     1
 90
        1
176
     1
 40
40.0
176
     1
 90
        8
176
     1
 62
     7
176
     1
 40
1.0
176
     1
 90
        1
176
     1
 90
        6
176
     1
 90
        2
176
     1
 62
     7
176
     1
 90
        3
176
     1
 90
        0
176
     1
 90
        0
176
     1
290
     0
176
     1
 90
        1
176
     1
 40
0.0
176
     1
 90
        0
176
     1
290
     0
176
     1
290
     1
176
     1
290
     1
176
     1
290
     0
176
     1
290
     0
176
     1
290
     0
176
     1
290
     0
176
     1
290
     0
176
     1
290
     0
176
     1
 90
       50
176
     1
 40
0.0
176
     1
 40
1.0
176
     1
 90
        0
176
     1
 62
    18
420
        0
176
     1
 90
       50
176
     1
 90
        3
176
     1
 62
     5
420
      255
176
     1
290
     0
176
     1
 90
       50
176
     1
 90
       50
176
     1
 90
       50
176
     1
290
     0
176
     1
 90
       50
176
     1
 62
   256
176
     0
 40
1.0
176
     0
 90
        2
176
     1
  1
strokes_ogs.tif
176
     1
290
     0
176
     1
 40
1.0
176
     1
 40
1.0
176
     1
  0
VISUALSTYLE
  5
FA
102
{ACAD_REACTORS
330
EF
102
}
330
EF
100
AcDbVisualStyle
  2
Dim
 70
    11
177
     3
291
     1
 70
    58
 90
        2
176
     1
 90
        2
176
     1
 90
        1
176
     1
 90
        0
176
     1
 40
0.6
176
     1
 40
30.0
176
     1
 62
     7
420
 16777215
176
     1
 90
        1
176
     1
 90
        4
176
     1
 62
     7
176
     1
 62
   257
176
     1
 90
        1
176
     1
 90
        1
176
     1
 40
1.0
176
     1
 90
        8
176
     1
 62
     7
176
     1
 40
1.0
176
     1
 90
        1
176
     1
 90
        6
176
     1
 90
        2
176
     1
 62
     7
176
     1
 90
        5
176
     1
 90
        0
176
     1
 90
        0
176
     1
290
     0
176
     1
 90
        1
176
     1
 40
-50.0
176
     1
 90
        0
176
     1
290
     0
176
     1
290
     1
176
     1
290
     1
176
     1
290
     0
176
     1
290
     0
176
     1
290
     0
176
     1
290
     0
176
     1
290
     0
176
     1
290
     0
176
     1
 90
       50
176
     1
 40
0.0
176
     1
 40
1.0
176
     1
 90
        0
176
     1
 62
    18
420
        0
176
     1
 90
       50
176
     1
 90
        3
176
     1
 62
     5
420
      255
176
     1
290
     0
176
     1
 90
       50
176
     1
 90
       50
176
     1
 90
       50
176
     1
290
     0
176
     1
 90
       50
176
     1
 62
   256
176
     0
 40
1.0
176
     0
 90
        2
176
     1
  1
strokes_ogs.tif
176
     1
290
     0
176
     1
 40
1.0
176
     1
 40
1.0
176
     1
  0
VISUALSTYLE
  5
1E6
102
{ACAD_REACTORS
330
EF
102
}
330
EF
100
AcDbVisualStyle
  2
EdgeColorOff
 70
    22
177
     3
291
     1
 70
    58
 90
        2
176
     0
 90
        2
176
     0
 90
        0
176
     0
 90
        0
176
     0
 40
0.6
176
     0
 40
30.0
176
     0
 62
     7
420
 16777215
176
     0
 90
        1
176
     0
 90
        4
176
     0
 62
     7
176
     0
 62
   257
176
     0
 90
        1
176
     0
 90
        1
176
     0
 40
1.0
176
     0
 90
        8
176
     2
 62
     7
176
     0
 40
1.0
176
     0
 90
        1
176
     0
 90
        6
176
     0
 90
        2
176
     0
 62
     7
176
     0
 90
        5
176
     0
 90
        0
176
     0
 90
        0
176
     0
290
     0
176
     0
 90
        1
176
     0
 40
0.0
176
     0
 90
        0
176
     0
290
     0
176
     1
290
     1
176
     1
290
     1
176
     1
290
     0
176
     1
290
     0
176
     1
290
     0
176
     1
290
     0
176
     1
290
     0
176
     1
290
     0
176
     1
 90
       50
176
     1
 40
0.0
176
     1
 40
1.0
176
     1
 90
        0
176
     1
 62
    18
420
        0
176
     1
 90
       50
176
     1
 90
        3
176
     1
 62
     5
420
      255
176
     1
290
     0
176
     1
 90
       50
176
     1
 90
       50
176
     1
 90
       50
176
     1
290
     0
176
     1
 90
       50
176
     1
 62
   256
176
     0
 40
1.0
176
     0
 90
        2
176
     1
  1
strokes_ogs.tif
176
     1
290
     0
176
     1
 40
1.0
176
     1
 40
1.0
176
     1
  0
VISUALSTYLE
  5
FE
102
{ACAD_REACTORS
330
EF
102
}
330
EF
100
AcDbVisualStyle
  2
Facepattern
 70
    15
177
     3
291
     1
 70
    58
 90
        2
176
     1
 90
        2
176
     1
 90
        1
176
     1
 90
        0
176
     1
 40
0.6
176
     1
 40
30.0
176
     1
 62
     7
420
 16777215
176
     1
 90
        1
176
     1
 90
        4
176
     1
 62
     7
176
     1
 62
   257
176
     1
 90
        1
176
     1
 90
        1
176
     1
 40
1.0
176
     1
 90
        8
176
     1
 62
     7
176
     1
 40
1.0
176
     1
 90
        1
176
     1
 90
        6
176
     1
 90
        2
176
     1
 62
     7
176
     1
 90
        5
176
     1
 90
        0
176
     1
 90
        0
176
     1
290
     0
176
     1
 90
        1
176
     1
 40
0.0
176
     1
 90
        0
176
     1
290
     0
176
     1
290
     1
176
     1
290
     1
176
     1
290
     0
176
     1
290
     0
176
     1
290
     0
176
     1
290
     0
176
     1
290
     0
176
     1
290
     0
176
     1
 90
       50
176
     1
 40
0.0
176
     1
 40
1.0
176
     1
 90
        0
176
     1
 62
    18
420
        0
176
     1
 90
       50
176
     1
 90
        3
176
     1
 62
     5
420
      255
176
     1
290
     0
176
     1
 90
       50
176
     1
 90
       50
176
     1
 90
       50
176
     1
290
     0
176
     1
 90
       50
176
     1
 62
   256
176
     0
 40
1.0
176
     0
 90
        2
176
     1
  1
strokes_ogs.tif
176
     1
290
     0
176
     1
 40
1.0
176
     1
 40
1.0
176
     1
  0
VISUALSTYLE
  5
F0
102
{ACAD_REACTORS
330
EF
102
}
330
EF
100
AcDbVisualStyle
  2
Flat
 70
     0
177
     3
291
     1
 70
    58
 90
        2
176
     1
 90
        1
176
     1
 90
        1
176
     1
 90
        2
176
     1
 40
0.6
176
     1
 40
30.0
176
     1
 62
     7
420
 16777215
176
     1
 90
        0
176
     1
 90
        0
176
     1
 62
     7
176
     1
 62
   257
176
     1
 90
        1
176
     1
 90
        1
176
     1
 40
1.0
176
     1
 90
        8
176
     1
 62
     7
176
     1
 40
1.0
176
     1
 90
        1
176
     1
 90
        6
176
     1
 90
        2
176
     1
 62
     7
176
     1
 90
        5
176
     1
 90
        0
176
     1
 90
        0
176
     1
290
     0
176
     1
 90
       13
176
     1
 40
0.0
176
     1
 90
        0
176
     1
290
     0
176
     1
290
     1
176
     1
290
     1
176
     1
290
     0
176
     1
290
     0
176
     1
290
     0
176
     1
290
     0
176
     1
290
     0
176
     1
290
     0
176
     1
 90
       50
176
     1
 40
0.0
176
     1
 40
1.0
176
     1
 90
        0
176
     1
 62
    18
420
        0
176
     1
 90
       50
176
     1
 90
        3
176
     1
 62
     5
420
      255
176
     1
290
     0
176
     1
 90
       50
176
     1
 90
       50
176
     1
 90
       50
176
     1
290
     0
176
     1
 90
       50
176
     1
 62
   256
176
     0
 40
1.0
176
     0
 90
        2
176
     1
  1
strokes_ogs.tif
176
     1
290
     0
176
     1
 40
1.0
176
     1
 40
1.0
176
     1
  0
VISUALSTYLE
  5
F1
102
{ACAD_REACTORS
330
EF
102
}
330
EF
100
AcDbVisualStyle
  2
FlatWithEdges
 70
     1
177
     3
291
     1
 70
    58
 90
        2
176
     1
 90
        1
176
     1
 90
        1
176
     1
 90
        2
176
     1
 40
0.6
176
     1
 40
30.0
176
     1
 62
     7
420
 16777215
176
     1
 90
        1
176
     1
 90
        0
176
     1
 62
     7
176
     1
 62
   257
176
     1
 90
        1
176
     1
 90
        1
176
     1
 40
1.0
176
     1
 90
        0
176
     1
 62
   257
176
     1
 40
1.0
176
     1
 90
        1
176
     1
 90
        6
176
     1
 90
        2
176
     1
 62
     7
176
     1
 90
        5
176
     1
 90
        0
176
     1
 90
        0
176
     1
290
     0
176
     1
 90
       13
176
     1
 40
0.0
176
     1
 90
        0
176
     1
290
     0
176
     1
290
     1
176
     1
290
     1
176
     1
290
     0
176
     1
290
     0
176
     1
290
     0
176
     1
290
     0
176
     1
290
     0
176
     1
290
     0
176
     1
 90
       50
176
     1
 40
0.0
176
     1
 40
1.0
176
     1
 90
        0
176
     1
 62
    18
420
        0
176
     1
 90
       50
176
     1
 90
        3
176
     1
 62
     5
420
      255
176
     1
290
     0
176
     1
 90
       50
176
     1
 90
       50
176
     1
 90
       50
176
     1
290
     0
176
     1
 90
       50
176
     1
 62
   256
176
     0
 40
1.0
176
     0
 90
        2
176
     1
  1
strokes_ogs.tif
176
     1
290
     0
176
     1
 40
1.0
176
     1
 40
1.0
176
     1
  0
VISUALSTYLE
  5
F2
102
{ACAD_REACTORS
330
EF
102
}
330
EF
100
AcDbVisualStyle
  2
Gouraud
 70
     2
177
     3
291
     1
 70
    58
 90
        2
176
     1
 90
        2
176
     1
 90
        1
176
     1
 90
        2
176
     1
 40
0.6
176
     1
 40
30.0
176
     1
 62
     7
420
 16777215
176
     1
 90
        0
176
     1
 90
        0
176
     1
 62
     7
176
     1
 62
   257
176
     1
 90
        1
176
     1
 90
        1
176
     1
 40
1.0
176
     1
 90
        0
176
     1
 62
     7
176
     1
 40
1.0
176
     1
 90
        1
176
     1
 90
        6
176
     1
 90
        2
176
     1
 62
     7
176
     1
 90
        5
176
     1
 90
        0
176
     1
 90
        0
176
     1
290
     0
176
     1
 90
       13
176
     1
 40
0.0
176
     1
 90
        0
176
     1
290
     0
176
     1
290
     1
176
     1
290
     1
176
     1
290
     0
176
     1
290
     0
176
     1
290
     0
176
     1
290
     0
176
     1
290
     0
176
     1
290
     0
176
     1
 90
       50
176
     1
 40
0.0
176
     1
 40
1.0
176
     1
 90
        0
176
     1
 62
    18
420
        0
176
     1
 90
       50
176
     1
 90
        3
176
     1
 62
     5
420
      255
176
     1
290
     0
176
     1
 90
       50
176
     1
 90
       50
176
     1
 90
       50
176
     1
290
     0
176
     1
 90
       50
176
     1
 62
   256
176
     0
 40
1.0
176
     0
 90
        2
176
     1
  1
strokes_ogs.tif
176
     1
290
     0
176
     1
 40
1.0
176
     1
 40
1.0
176
     1
  0
VISUALSTYLE
  5
F3
102
{ACAD_REACTORS
330
EF
102
}
330
EF
100
AcDbVisualStyle
  2
GouraudWithEdges
 70
     3
177
     3
291
     1
 70
    58
 90
        2
176
     1
 90
        2
176
     1
 90
        1
176
     1
 90
        2
176
     1
 40
0.6
176
     1
 40
30.0
176
     1
 62
     7
420
 16777215
176
     1
 90
        1
176
     1
 90
        0
176
     1
 62
     7
176
     1
 62
   257
176
     1
 90
        1
176
     1
 90
        1
176
     1
 40
1.0
176
     1
 90
        0
176
     1
 62
   257
176
     1
 40
1.0
176
     1
 90
        1
176
     1
 90
        6
176
     1
 90
        2
176
     1
 62
     7
176
     1
 90
        5
176
     1
 90
        0
176
     1
 90
        0
176
     1
290
     0
176
     1
 90
       13
176
     1
 40
0.0
176
     1
 90
        0
176
     1
290
     0
176
     1
290
     1
176
     1
290
     1
176
     1
290
     0
176
     1
290
     0
176
     1
290
     0
176
     1
290
     0
176
     1
290
     0
176
     1
290
     0
176
     1
 90
       50
176
     1
 40
0.0
176
     1
 40
1.0
176
     1
 90
        0
176
     1
 62
    18
420
        0
176
     1
 90
       50
176
     1
 90
        3
176
     1
 62
     5
420
      255
176
     1
290
     0
176
     1
 90
       50
176
     1
 90
       50
176
     1
 90
       50
176
     1
290
     0
176
     1
 90
       50
176
     1
 62
   256
176
     0
 40
1.0
176
     0
 90
        2
176
     1
  1
strokes_ogs.tif
176
     1
290
     0
176
     1
 40
1.0
176
     1
 40
1.0
176
     1
  0
VISUALSTYLE
  5
F7
102
{ACAD_REACTORS
330
EF
102
}
330
EF
100
AcDbVisualStyle
  2
Hidden
 70
     6
177
     3
291
     0
 70
    58
 90
        1
176
     1
 90
        2
176
     1
 90
        2
176
     1
 90
        0
176
     1
 40
0.6
176
     1
 40
30.0
176
     1
 62
     7
420
 16777215
176
     1
 90
        2
176
     1
 90
        2
176
     1
 62
     7
176
     1
 62
   257
176
     1
 90
        2
176
     1
 90
        1
176
     1
 40
40.0
176
     1
 90
        0
176
     1
 62
   257
176
     1
 40
1.0
176
     1
 90
        1
176
     1
 90
        6
176
     1
 90
        2
176
     1
 62
     7
176
     1
 90
        3
176
     1
 90
        0
176
     1
 90
        0
176
     1
290
     0
176
     1
 90
        1
176
     1
 40
0.0
176
     1
 90
        0
176
     1
290
     0
176
     1
290
     1
176
     1
290
     1
176
     1
290
     0
176
     1
290
     0
176
     1
290
     0
176
     1
290
     0
176
     1
290
     0
176
     1
290
     0
176
     1
 90
       50
176
     1
 40
0.0
176
     1
 40
1.0
176
     1
 90
        0
176
     1
 62
    18
420
        0
176
     1
 90
       50
176
     1
 90
        3
176
     1
 62
     5
420
      255
176
     1
290
     0
176
     1
 90
       50
176
     1
 90
       50
176
     1
 90
       50
176
     1
290
     0
176
     1
 90
       50
176
     1
 62
   256
176
     0
 40
1.0
176
     0
 90
        2
176
     1
  1
strokes_ogs.tif
176
     1
290
     0
176
     1
 40
1.0
176
     1
 40
1.0
176
     1
  0
VISUALSTYLE
  5
1E4
102
{ACAD_REACTORS
330
EF
102
}
330
EF
100
AcDbVisualStyle
  2
JitterOff
 70
    20
177
     3
291
     1
 70
    58
 90
        2
176
     0
 90
        2
176
     0
 90
        0
176
     0
 90
        0
176
     0
 40
0.6
176
     0
 40
30.0
176
     0
 62
     7
420
 16777215
176
     0
 90
        1
176
     0
 90
        4
176
     0
 62
     7
176
     0
 62
   257
176
     0
 90
        1
176
     0
 90
        1
176
     0
 40
1.0
176
     0
 90
       10
176
     2
 62
     7
176
     0
 40
1.0
176
     0
 90
        1
176
     0
 90
        6
176
     0
 90
        2
176
     0
 62
     7
176
     0
 90
        5
176
     0
 90
        0
176
     0
 90
        0
176
     0
290
     0
176
     0
 90
        1
176
     0
 40
0.0
176
     0
 90
        0
176
     0
290
     0
176
     1
290
     1
176
     1
290
     1
176
     1
290
     0
176
     1
290
     0
176
     1
290
     0
176
     1
290
     0
176
     1
290
     0
176
     1
290
     0
176
     1
 90
       50
176
     1
 40
0.0
176
     1
 40
1.0
176
     1
 90
        0
176
     1
 62
    18
420
        0
176
     1
 90
       50
176
     1
 90
        3
176
     1
 62
     5
420
      255
176
     1
290
     0
176
     1
 90
       50
176
     1
 90
       50
176
     1
 90
       50
176
     1
290
     0
176
     1
 90
       50
176
     1
 62
   256
176
     0
 40
1.0
176
     0
 90
        2
176
     1
  1
strokes_ogs.tif
176
     1
290
     0
176
     1
 40
1.0
176
     1
 40
1.0
176
     1
  0
VISUALSTYLE
  5
FD
102
{ACAD_REACTORS
330
EF
102
}
330
EF
100
AcDbVisualStyle
  2
Linepattern
 70
    14
177
     3
291
     1
 70
    58
 90
        2
176
     1
 90
        2
176
     1
 90
        1
176
     1
 90
        0
176
     1
 40
0.6
176
     1
 40
30.0
176
     1
 62
     7
420
 16777215
176
     1
 90
        1
176
     1
 90
        4
176
     1
 62
     7
176
     1
 62
   257
176
     1
 90
        7
176
     1
 90
        7
176
     1
 40
1.0
176
     1
 90
        8
176
     1
 62
     7
176
     1
 40
1.0
176
     1
 90
        1
176
     1
 90
        6
176
     1
 90
        2
176
     1
 62
     7
176
     1
 90
        5
176
     1
 90
        0
176
     1
 90
        0
176
     1
290
     0
176
     1
 90
        1
176
     1
 40
0.0
176
     1
 90
        0
176
     1
290
     0
176
     1
290
     1
176
     1
290
     1
176
     1
290
     0
176
     1
290
     0
176
     1
290
     0
176
     1
290
     0
176
     1
290
     0
176
     1
290
     0
176
     1
 90
       50
176
     1
 40
0.0
176
     1
 40
1.0
176
     1
 90
        0
176
     1
 62
    18
420
        0
176
     1
 90
       50
176
     1
 90
        3
176
     1
 62
     5
420
      255
176
     1
290
     0
176
     1
 90
       50
176
     1
 90
       50
176
     1
 90
       50
176
     1
290
     0
176
     1
 90
       50
176
     1
 62
   256
176
     0
 40
1.0
176
     0
 90
        2
176
     1
  1
strokes_ogs.tif
176
     1
290
     0
176
     1
 40
1.0
176
     1
 40
1.0
176
     1
  0
VISUALSTYLE
  5
1E5
102
{ACAD_REACTORS
330
EF
102
}
330
EF
100
AcDbVisualStyle
  2
OverhangOff
 70
    21
177
     3
291
     1
 70
    58
 90
        2
176
     0
 90
        2
176
     0
 90
        0
176
     0
 90
        0
176
     0
 40
0.6
176
     0
 40
30.0
176
     0
 62
     7
420
 16777215
176
     0
 90
        1
176
     0
 90
        4
176
     0
 62
     7
176
     0
 62
   257
176
     0
 90
        1
176
     0
 90
        1
176
     0
 40
1.0
176
     0
 90
        9
176
     2
 62
     7
176
     0
 40
1.0
176
     0
 90
        1
176
     0
 90
        6
176
     0
 90
        2
176
     0
 62
     7
176
     0
 90
        5
176
     0
 90
        0
176
     0
 90
        0
176
     0
290
     0
176
     0
 90
        1
176
     0
 40
0.0
176
     0
 90
        0
176
     0
290
     0
176
     1
290
     1
176
     1
290
     1
176
     1
290
     0
176
     1
290
     0
176
     1
290
     0
176
     1
290
     0
176
     1
290
     0
176
     1
290
     0
176
     1
 90
       50
176
     1
 40
0.0
176
     1
 40
1.0
176
     1
 90
        0
176
     1
 62
    18
420
        0
176
     1
 90
       50
176
     1
 90
        3
176
     1
 62
     5
420
      255
176
     1
290
     0
176
     1
 90
       50
176
     1
 90
       50
176
     1
 90
       50
176
     1
290
     0
176
     1
 90
       50
176
     1
 62
   256
176
     0
 40
1.0
176
     0
 90
        2
176
     1
  1
strokes_ogs.tif
176
     1
290
     0
176
     1
 40
1.0
176
     1
 40
1.0
176
     1
  0
VISUALSTYLE
  5
F9
102
{ACAD_REACTORS
330
EF
102
}
330
EF
100
AcDbVisualStyle
  2
Realistic
 70
     8
177
     3
291
     0
 70
    58
 90
        2
176
     1
 90
        3
176
     1
 90
        0
176
     1
 90
        2
176
     1
 40
0.6
176
     1
 40
30.0
176
     1
 62
     7
420
 16777215
176
     1
 90
        0
176
     1
 90
        0
176
     1
 62
     7
176
     1
 62
   257
176
     1
 90
        1
176
     1
 90
        1
176
     1
 40
1.0
176
     1
 90
        8
176
     1
 62
   257
176
     1
 40
1.0
176
     1
 90
        1
176
     1
 90
        6
176
     1
 90
        2
176
     1
 62
     7
176
     1
 90
        3
176
     1
 90
        0
176
     1
 90
        0
176
     1
290
     0
176
     1
 90
       13
176
     1
 40
0.0
176
     1
 90
        0
176
     1
290
     0
176
     1
290
     1
176
     1
290
     1
176
     1
290
     0
176
     1
290
     0
176
     1
290
     0
176
     1
290
     0
176
     1
290
     0
176
     1
290
     0
176
     1
 90
       50
176
     1
 40
0.0
176
     1
 40
1.0
176
     1
 90
        0
176
     1
 62
    18
420
        0
176
     1
 90
       50
176
     1
 90
        3
176
     1
 62
     5
420
      255
176
     1
290
     0
176
     1
 90
       50
176
     1
 90
       50
176
     1
 90
       50
176
     1
290
     0
176
     1
 90
       50
176
     1
 62
   256
176
     0
 40
1.0
176
     0
 90
        2
176
     1
  1
strokes_ogs.tif
176
     1
290
     0
176
     1
 40
1.0
176
     1
 40
1.0
176
     1
  0
VISUALSTYLE
  5
1F3
102
{ACAD_REACTORS
330
EF
102
}
330
EF
100
AcDbVisualStyle
  2
Shaded
 70
    27
177
     3
291
     0
 70
    58
 90
        2
176
     1
 90
        2
176
     1
 90
        1
176
     1
 90
        2
176
     1
 40
0.6
176
     1
 40
30.0
176
     1
 62
     7
420
 16777215
176
     1
 90
        0
176
     1
 90
        4
176
     1
 62
     7
176
     1
 62
   257
176
     1
 90
        1
176
     1
 90
        1
176
     1
 40
1.0
176
     1
 90
        8
176
     1
 62
   257
176
     1
 40
1.0
176
     1
 90
        1
176
     1
 90
        6
176
     1
 90
        2
176
     1
 62
     8
420
  7895160
176
     1
 90
        3
176
     1
 90
        0
176
     1
 90
        0
176
     1
290
     0
176
     1
 90
        5
176
     1
 40
0.0
176
     1
 90
        0
176
     1
290
     0
176
     1
290
     1
176
     1
290
     1
176
     1
290
     0
176
     1
290
     0
176
     1
290
     0
176
     1
290
     0
176
     1
290
     0
176
     1
290
     0
176
     1
 90
       50
176
     1
 40
0.0
176
     1
 40
1.0
176
     1
 90
        0
176
     1
 62
    18
420
        0
176
     1
 90
       50
176
     1
 90
        3
176
     1
 62
     5
420
      255
176
     1
290
     0
176
     1
 90
       50
176
     1
 90
       50
176
     1
 90
       50
176
     1
290
     0
176
     1
 90
       50
176
     1
 62
   256
176
     0
 40
1.0
176
     0
 90
        2
176
     1
  1
strokes_ogs.tif
176
     1
290
     0
176
     1
 40
1.0
176
     1
 40
1.0
176
     1
  0
VISUALSTYLE
  5
1F2
102
{ACAD_REACTORS
330
EF
102
}
330
EF
100
AcDbVisualStyle
  2
Shaded with edges
 70
    26
177
     3
291
     0
 70
    58
 90
        2
176
     1
 90
        2
176
     1
 90
        1
176
     1
 90
        2
176
     1
 40
0.6
176
     1
 40
30.0
176
     1
 62
     7
420
 16777215
176
     1
 90
        1
176
     1
 90
        2
176
     1
 62
     7
176
     1
 62
   257
176
     1
 90
        2
176
     1
 90
        1
176
     1
 40
1.0
176
     1
 90
        8
176
     1
 62
   257
176
     1
 40
1.0
176
     1
 90
        1
176
     1
 90
        6
176
     1
 90
        2
176
     1
 62
     7
176
     1
 90
        3
176
     1
 90
        0
176
     1
 90
        0
176
     1
290
     0
176
     1
 90
        5
176
     1
 40
0.0
176
     1
 90
        0
176
     1
290
     0
176
     1
290
     1
176
     1
290
     1
176
     1
290
     0
176
     1
290
     0
176
     1
290
     0
176
     1
290
     0
176
     1
290
     0
176
     1
290
     0
176
     1
 90
       50
176
     1
 40
0.0
176
     1
 40
1.0
176
     1
 90
        0
176
     1
 62
    18
420
        0
176
     1
 90
       50
176
     1
 90
        3
176
     1
 62
     5
420
      255
176
     1
290
     0
176
     1
 90
       50
176
     1
 90
       50
176
     1
 90
       50
176
     1
290
     0
176
     1
 90
       50
176
     1
 62
   256
176
     0
 40
1.0
176
     0
 90
        2
176
     1
  1
strokes_ogs.tif
176
     1
290
     0
176
     1
 40
1.0
176
     1
 40
1.0
176
     1
  0
VISUALSTYLE
  5
1EF
102
{ACAD_REACTORS
330
EF
102
}
330
EF
100
AcDbVisualStyle
  2
Shades of Gray
 70
    23
177
     3
291
     0
 70
    58
 90
        2
176
     1
 90
        2
176
     1
 90
        3
176
     1
 90
        0
176
     1
 40
0.6
176
     1
 40
30.0
176
     1
 62
     7
420
 16777215
176
     1
 90
        2
176
     1
 90
        2
176
     1
 62
     7
176
     1
 62
     7
176
     1
 90
        1
176
     1
 90
        1
176
     1
 40
40.0
176
     1
 90
        8
176
     1
 62
     7
176
     1
 40
1.0
176
     1
 90
        1
176
     1
 90
        6
176
     1
 90
        2
176
     1
 62
     7
176
     1
 90
        3
176
     1
 90
        0
176
     1
 90
        0
176
     1
290
     0
176
     1
 90
        1
176
     1
 40
0.0
176
     1
 90
        0
176
     1
290
     0
176
     1
290
     1
176
     1
290
     1
176
     1
290
     0
176
     1
290
     0
176
     1
290
     0
176
     1
290
     0
176
     1
290
     0
176
     1
290
     0
176
     1
 90
       50
176
     1
 40
0.0
176
     1
 40
1.0
176
     1
 90
        0
176
     1
 62
    18
420
        0
176
     1
 90
       50
176
     1
 90
        3
176
     1
 62
     5
420
      255
176
     1
290
     0
176
     1
 90
       50
176
     1
 90
       50
176
     1
 90
       50
176
     1
290
     0
176
     1
 90
       50
176
     1
 62
   256
176
     0
 40
1.0
176
     0
 90
        2
176
     1
  1
strokes_ogs.tif
176
     1
290
     0
176
     1
 40
1.0
176
     1
 40
1.0
176
     1
  0
VISUALSTYLE
  5
1F0
102
{ACAD_REACTORS
330
EF
102
}
330
EF
100
AcDbVisualStyle
  2
Sketchy
 70
    24
177
     3
291
     0
 70
    58
 90
        1
176
     1
 90
        2
176
     1
 90
        2
176
     1
 90
        0
176
     1
 40
0.6
176
     1
 40
30.0
176
     1
 62
     7
420
 16777215
176
     1
 90
        2
176
     1
 90
        2
176
     1
 62
     7
176
     1
 62
     7
176
     1
 90
        1
176
     1
 90
        1
176
     1
 40
40.0
176
     1
 90
       11
176
     1
 62
     7
176
     1
 40
1.0
176
     1
 90
        1
176
     1
 90
        6
176
     1
 90
        2
176
     1
 62
     7
176
     1
 90
        6
176
     1
 90
        0
176
     1
 90
        0
176
     1
290
     0
176
     1
 90
        1
176
     1
 40
0.0
176
     1
 90
        0
176
     1
290
     0
176
     1
290
     1
176
     1
290
     1
176
     1
290
     0
176
     1
290
     0
176
     1
290
     0
176
     1
290
     0
176
     1
290
     0
176
     1
290
     0
176
     1
 90
       50
176
     1
 40
0.0
176
     1
 40
1.0
176
     1
 90
        0
176
     1
 62
    18
420
        0
176
     1
 90
       50
176
     1
 90
        3
176
     1
 62
     5
420
      255
176
     1
290
     0
176
     1
 90
       50
176
     1
 90
       50
176
     1
 90
       50
176
     1
290
     0
176
     1
 90
       50
176
     1
 62
   256
176
     0
 40
1.0
176
     0
 90
        2
176
     1
  1
strokes_ogs.tif
176
     1
290
     0
176
     1
 40
1.0
176
     1
 40
1.0
176
     1
  0
VISUALSTYLE
  5
FC
102
{ACAD_REACTORS
330
EF
102
}
330
EF
100
AcDbVisualStyle
  2
Thicken
 70
    13
177
     3
291
     1
 70
    58
 90
        2
176
     1
 90
        2
176
     1
 90
        1
176
     1
 90
        0
176
     1
 40
0.6
176
     1
 40
30.0
176
     1
 62
     7
420
 16777215
176
     1
 90
        1
176
     1
 90
        4
176
     1
 62
     7
176
     1
 62
   257
176
     1
 90
        1
176
     1
 90
        1
176
     1
 40
1.0
176
     1
 90
       12
176
     1
 62
     7
176
     1
 40
1.0
176
     1
 90
        1
176
     1
 90
        6
176
     1
 90
        2
176
     1
 62
     7
176
     1
 90
        5
176
     1
 90
        0
176
     1
 90
        0
176
     1
290
     0
176
     1
 90
        1
176
     1
 40
0.0
176
     1
 90
        0
176
     1
290
     0
176
     1
290
     1
176
     1
290
     1
176
     1
290
     0
176
     1
290
     0
176
     1
290
     0
176
     1
290
     0
176
     1
290
     0
176
     1
290
     0
176
     1
 90
       50
176
     1
 40
0.0
176
     1
 40
1.0
176
     1
 90
        0
176
     1
 62
    18
420
        0
176
     1
 90
       50
176
     1
 90
        3
176
     1
 62
     5
420
      255
176
     1
290
     0
176
     1
 90
       50
176
     1
 90
       50
176
     1
 90
       50
176
     1
290
     0
176
     1
 90
       50
176
     1
 62
   256
176
     0
 40
1.0
176
     0
 90
        2
176
     1
  1
strokes_ogs.tif
176
     1
290
     0
176
     1
 40
1.0
176
     1
 40
1.0
176
     1
  0
VISUALSTYLE
  5
F6
102
{ACAD_REACTORS
330
EF
102
}
330
EF
100
AcDbVisualStyle
  2
Wireframe
 70
     5
177
     3
291
     0
 70
    58
 90
        0
176
     1
 90
        2
176
     1
 90
        0
176
     1
 90
        0
176
     1
 40
0.6
176
     1
 40
30.0
176
     1
 62
     7
420
 16777215
176
     1
 90
        1
176
     1
 90
        4
176
     1
 62
     7
176
     1
 62
   257
176
     1
 90
        1
176
     1
 90
        1
176
     1
 40
1.0
176
     1
 90
        0
176
     1
 62
   257
176
     1
 40
1.0
176
     1
 90
        1
176
     1
 90
        6
176
     1
 90
        2
176
     1
 62
     7
176
     1
 90
        3
176
     1
 90
        0
176
     1
 90
        0
176
     1
290
     0
176
     1
 90
        1
176
     1
 40
0.0
176
     1
 90
        0
176
     1
290
     0
176
     1
290
     1
176
     1
290
     1
176
     1
290
     0
176
     1
290
     0
176
     1
290
     0
176
     1
290
     0
176
     1
290
     0
176
     1
290
     0
176
     1
 90
       50
176
     1
 40
0.0
176
     1
 40
1.0
176
     1
 90
        0
176
     1
 62
    18
420
        0
176
     1
 90
       50
176
     1
 90
        3
176
     1
 62
     5
420
      255
176
     1
290
     0
176
     1
 90
       50
176
     1
 90
       50
176
     1
 90
       50
176
     1
290
     0
176
     1
 90
       50
176
     1
 62
   256
176
     0
 40
1.0
176
     0
 90
        2
176
     1
  1
strokes_ogs.tif
176
     1
290
     0
176
     1
 40
1.0
176
     1
 40
1.0
176
     1
  0
VISUALSTYLE
  5
1F1
102
{ACAD_REACTORS
330
EF
102
}
330
EF
100
AcDbVisualStyle
  2
X-Ray
 70
    25
177
     3
291
     0
 70
    58
 90
        2
176
     1
 90
        2
176
     1
 90
        1
176
     1
 90
        1
176
     1
 40
0.5
176
     1
 40
30.0
176
     1
 62
     7
420
 16777215
176
     1
 90
        1
176
     1
 90
        0
176
     1
 62
     7
176
     1
 62
   257
176
     1
 90
        1
176
     1
 90
        1
176
     1
 40
1.0
176
     1
 90
        8
176
     1
 62
     7
176
     1
 40
1.0
176
     1
 90
        1
176
     1
 90
        6
176
     1
 90
        2
176
     1
 62
     7
176
     1
 90
        3
176
     1
 90
        0
176
     1
 90
        0
176
     1
290
     0
176
     1
 90
       13
176
     1
 40
0.0
176
     1
 90
        0
176
     1
290
     0
176
     1
290
     1
176
     1
290
     1
176
     1
290
     0
176
     1
290
     0
176
     1
290
     0
176
     1
290
     0
176
     1
290
     0
176
     1
290
     0
176
     1
 90
       50
176
     1
 40
0.0
176
     1
 40
1.0
176
     1
 90
        0
176
     1
 62
    18
420
        0
176
     1
 90
       50
176
     1
 90
        3
176
     1
 62
     5
420
      255
176
     1
290
     0
176
     1
 90
       50
176
     1
 90
       50
176
     1
 90
       50
176
     1
290
     0
176
     1
 90
       50
176
     1
 62
   256
176
     0
 40
1.0
176
     0
 90
        2
176
     1
  1
strokes_ogs.tif
176
     1
290
     0
176
     1
 40
1.0
176
     1
 40
1.0
176
     1
  0
DICTIONARYVAR
  5
146
102
{ACAD_REACTORS
330
5E
102
}
330
5E
100
DictionaryVariables
280
     0
  1
1:1
  0
DICTIONARYVAR
  5
259
102
{ACAD_REACTORS
330
5E
102
}
330
5E
100
DictionaryVariables
280
     0
  1
3.500000
  0
DICTIONARYVAR
  5
25A
102
{ACAD_REACTORS
330
5E
102
}
330
5E
100
DictionaryVariables
280
     0
  1
acadiso.lin
  0
DICTIONARYVAR
  5
145
102
{ACAD_REACTORS
330
5E
102
}
330
5E
100
DictionaryVariables
280
     0
  1
STANDARD
  0
DICTIONARYVAR
  5
84
102
{ACAD_REACTORS
330
5E
102
}
330
5E
100
DictionaryVariables
280
     0
  1
STANDARD
  0
DICTIONARYVAR
  5
227
102
{ACAD_REACTORS
330
5E
102
}
330
5E
100
DictionaryVariables
280
     0
  1
Metric50
  0
DICTIONARYVAR
  5
228
102
{ACAD_REACTORS
330
5E
102
}
330
5E
100
DictionaryVariables
280
     0
  1
Metric50
  0
DICTIONARYVAR
  5
5F
102
{ACAD_REACTORS
330
5E
102
}
330
5E
100
DictionaryVariables
280
     0
  1
2
  0
DICTIONARYVAR
  5
63
102
{ACAD_REACTORS
330
5E
102
}
330
5E
100
DictionaryVariables
280
     0
  1
1
  0
DICTIONARYVAR
  5
9E9
102
{ACAD_REACTORS
330
5E
102
}
330
5E
100
DictionaryVariables
280
     0
  1
BYLAYER
  0
DICTIONARYVAR
  5
9E8
102
{ACAD_REACTORS
330
5E
102
}
330
5E
100
DictionaryVariables
280
     0
  1
ByLayer
  0
DICTIONARYVAR
  5
1AE
102
{ACAD_REACTORS
330
5E
102
}
330
5E
100
DictionaryVariables
280
     0
  1
0
  0
DICTIONARYVAR
  5
1AF
102
{ACAD_REACTORS
330
5E
102
}
330
5E
100
DictionaryVariables
280
     0
  1
0
  0
DICTIONARY
  5
205
330
22
100
AcDbDictionary
280
     1
281
     1
  0
DICTIONARY
  5
1F9
330
ED
100
AcDbDictionary
280
     1
281
     1
  3
FBXASSET
360
1FA
  0
DICTIONARY
  5
1F7
330
EC
100
AcDbDictionary
280
     1
281
     1
  3
FBXASSET
360
1F8
  0
DICTIONARY
  5
173
330
EE
100
AcDbDictionary
280
     1
281
     1
  3
BUMPTILE
360
175
  3
DIFFUSETILE
360
174
  3
FBXASSET
360
1FB
  3
OPACITYTILE
360
176
  3
REFLECTIONTILE
360
177
  0
DICTIONARY
  5
162
330
7F
100
AcDbDictionary
280
     1
281
     1
  3
ACAD_ROUNDTRIP_2008_TABLESTYLE_CELLSTYLEMAP
360
D5B
  0
XRECORD
  5
1FA
102
{ACAD_REACTORS
330
1F9
102
}
330
1F9
100
AcDbXrecord
280
     1
 70
     1
 90
429727718
  1
D62C5603-E3A1-4AEA-B7FB-FE5D8D0755AF
310
504B03040A0000080000CC70623B3DEE336E79000000790000001B0000006175746F6465736B2D64657369676E2D7061636B6167652E786D6C3C3F786D6C2076657273696F6E3D22312E302220656E636F64696E673D227574662D3822203F3E3C666F726D6174733E3C666F726D61743E687474703A2F2F736368656D612E
310
6175746F6465736B2E636F6D2F64657369676E2D7061636B6167652F323030393C2F666F726D61743E3C2F666F726D6174733E504B0304140006080800CC70623BD486FD9CA0000000F4000000130000005B436F6E74656E745F54797065735D2E786D6C7D8EC10E82300C865F65E91D8A1E8C310C0EEA1BF002731658846E
310
D98AC1B77784ABF1D8FE5FBFBF75BBCE937A534CCEB38643598122B6FEE978D0B0485F9C41B54DDD7D022595594E1A469170414C76A4D9A4D207E29CF43ECE46F218070CC6BECC4078ACAA135ACF422C856C0E68EA1BF5669944DDD7BCDE7B1F8E415D77AECB980613C2E4AC91FC167A2B244592486606FC29C8FD7F045B9A
310
EF7053A7E60B504B0304140006080800CC70623B853B8169EB0000007C01000008000000636F72652E786D6C8D90416EC3201045AF62CDB6C206821CC7C244919D9CA01740401C94182C03558F5F9C3852BBEB6A467FFE9B197D7EFC9E1EC5975982F5AE035262288C535E5B377690E21535501C055FBC8FBF6C503839990E
310
5619041F179FE64D52DE45E362569DD7661365082642A11EB9E920A89B99642953CC8E702F67A9EE7234257977194EC9EAE275C4EABCCF5EAD5940D4AC6F0E35A568B8F43562CD7046CD199FD07E60174276A7BE677B5EADB0E0D14EEFFB6A31321A0D82627C4084204C3F096B71DD52F6819B16635EADF63F509AF53FA164
310
5DDCD1EDDD17164090FCC8732078B56691CB33A85CD7DCC40F504B0304140006080800CC70623B55019EA25F0000007C00000007000000636E782E786D6C4DCB3B0E80201045D1AD90E915ED2CF8AC45050C11660C8261F98AB1B07AC9C97D42D718D865D3E909258CFD00CCE24AC6E326A164D74DC0B4128928FF32603847
310
2BA13128B1252AC747C6BAB984FC68F0B87FE8960A5C09FE86CFB69FBA01504B0304140006080800CC70623BDBABAAF470010000D40300000C0000006662782F636F72652E786D6CC553D16E823014FD95A6AF4B694182CC941A83FA05FB810A9511A125A5257EFE2E82712ECEB8A7F100CD39F7F69E734AF9FADC366850B6
310
AF8DCE7018308C942E4C59EB2AC3DE1D498AD15A706B8CFB56869196ADCAF00863C12B6B7C374385D14E6907A836A59A41D9F7CA615434B0C8705F7CAA5606D23BA8E84F41278B93AC54100640439DE0BDB320004D43C63716C7C399D30917DCFBBA9CD9BA8469F5B156168B24CED3F7248AC8769F27244EB73B92EED8862C
310
B7F13E0C179B3C8F979C8ECD82BBBABDAA2BAC924E9558448CBD9330242CFA08E3154B5651FCC6D215639C8EE5774DBE2B5F6CF2B5768B68963BB5F5588420E442FC700B1139D4CB01F450C1E918227C2E09DF070D8140C84E1E9AAB8F1340832A9CB13130A5F1376A908D57309505ECF2A0DF179C4E9D30F5B239B87E3823
310
7A79C6F31DE1A8A5AEC08474B03C7837EAE4938639B44E5932B833D2C6B6B279CDC613877FA26EE21F4A2A4C63EC7F29A2F301D1F9F7A0E37D145F504B0304140006080800CC70623B9C113CC27E0000009D0000000B0000006662782F636E782E786D6C4DCCDF0A83201C86E15B91DFB94BFB330DD428C8FB886521330DA7
310
6397BF1A1DECE883878F57749FCDA1B7892F1BBC047A23808C7F84D9FA55424E0BE6803A256208E9EF06C84F9B91703228B1C690F78B66B34CD9A5439DF5CF0BFBF65E35BCA1B8D6A5C6F540381E886698B5741C695F9503EBA150A2F8958E3DC3EA0B504B0304140006080800CC70623B7DF2F77C2A010000120200003100
310
00006662782F41393633353835312D344632462D344230382D423046372D3739314545314133324237412F636F72652E786D6C8D51DB8EC22014FC15C2939B0D2DB4B45643319AE817EC0F6041255A68B86CFCFC856D4D76DF7CE190393373060EDB3DC707F856CE6B6B7A480A0C81328395DA5C7B18C3057510EC3873D686
310
3F34088C18550F330C39BB3A1BA7051AAC09CA84841A2BD5020AEF55806078A44B0FFD7053A328440C89E1EFC52486BBB8AA8214A99D789CF9E05200300FC927E4FB4D5B375D43103D5527440FB843077C5AA3F5861C8F645F5787F59E95B390B318B55CE45AA638FAA2957BD7248B390B7A7CC51F9C124149C82B8C378810
310
84AB2F42B7B8DD56F413775B8C5999E9FF4471926F8AA236A1AE96B8B3CC434E5839373893369E1FAF30EA395917409EB7F26AF8801C171837A4A6AC9C89E9F9C9B1A58BA30FD6A5EF5DDDCF894B9AD9B6A59C957943A9FCAE2FD5BC4DFE03504B0304140006080800CC70623BAD7543B64E01000033030000300000006662
310
782F41393633353835312D344632462D344230382D423046372D3739314545314133324237412F636E782E786D6CD593CD6EC32010845F0571AD6CE3D48AD20813A9873E410FBD12D82434182C7EAAE6EDBB2424CD25871E7B41D6EC30B3FA84F9E67BB2E40B4234DE8DB46F1925E094D7C6ED479AD3AE5951B2113C789FEE
310
6C943839C1488B4C05DF079FE72A69D8C96C13AAD6B8631503449F83828872B949AC57D26200B826A308D316B4064D6E46FCDA41C05550DC9E483A00797BFD207EFB092A45DE9514C1BBD22178396BD39D891265658C238DEA00936C654E5E433CB65A26D9F6EDB5EBC14EBF49A45CB856E66048291F6939A9A81BB5C89177
310
38143CA680F4AA299D66A042CEB3354A2684DC9D8D178FE0D9B8B41CAAD720F880EE7EF93C0C18769E099ECC04D5A102C8049A8A05632F4DDF376CF1DE0F6BB65C2F8627B65A33C6BB62177CEBBDAD973006829F89F22E814B54F4BC2BE347F8AA8F681390B50FA73F804400B5F542E796F19FF974E7F78DB802FE05E20750
310
4B0304140006080800CC70623BE75B7789680500003C100000340000006662782F41393633353835312D344632462D344230382D423046372D3739314545314133324237412F6F626A656374732E786D6CAD575B8F9B3818FD2B887D06C22499CB8AA1CA655245D5B455A356FB305264C061D8018C6C3393D95FBFC7600890
310
A4CD5EF210B0B1BFEBF98E3F7B1FF6596ABC522E1296DF9BAE3D320D9A872C4AF2F8DE2CE5CEBA358D0FBEC719939D65A691938CDE9B6ADAF4BD98B3B2D05311DD91329583D9D5FC0F438434A7A611A644887B5384CF34233629258BA878B12322891DEFF6B66BD70BFB62634E8AE781D082709A4B588AF91C528CDA28B73F
310
1C998EEF39EABBEFA97FBD6A7C7E9553F9D3D79FE442923C3C523610337627CB87ABE99D359D4CC6D6E4FACAB5E6ABF9D2726FC6A3C5F56271377BB88362213924694B38DD99FE47C48627A1E7D49F5A8BB5E1A74C0A599ED3B0F21F1E56366B89112D681E218F0915D0D6F17AD41FBA2A369DCF6335D62ABBD39779D5DDD1
310
11D4D8DE3CBB96B2E04FB8202E41051754A1AA8E8F76B4C6DFE810B580B1547F4B84911149794252234D024EF8BBE963A95AE27B3D310A9D5C215C7960FAEE415ED75694C6AFB17BCACA5D99A60A9AA65F217B0BFC53292ACB92BF283FAD0D3621576592CB5BED907C2FA8E9DF794E35E97BEA31BED21FEB401ABB94C44839
310
DCACBF0E1C5DA8DA5B2F4DFFD32AD86F543D9E565E7056502E157C00AD2671CD534549AB752FCA9CDA00677A313F04E51B22FF19E57B300579E3C97EB29F682D92935CEC18CF901B7B54FD8C51F362B56FC72FE0B3C1EAE335EDCCBF5AEC39ADB17DC238973F804BA5E6F6BFE7AF1FB32E523BE9F3BD571418E3631DCA4D48
310
5250CF639223210A9446CA30052EDF057BD35F8329C1ECD84552BF0DC8D18BE7BCE23BFE6BD960AB4A7DE79923A103BEBD80F911CBAA2C60DB19B01CF164A5583B772EE6D3FFA56666CBCDA74DC97724A48F9A58967497E489C4D979006FD7A05E227A1EBDD0F737C623387A9C844D3709995625106D157315F8B8392CD4E0
310
A0B9A720C4BE9829CEF37EA1E13111214D53925356365ADA634861B52519DD27A00AEB808EAF0628E6F435519D446F45CF2C9CF5214F0A15B2F6D06B79DA3EE3CBF7F56780D2F4E7EF73A0F5E5B02A38D07DC852C6B7C1FBB6664213E0C39E3EBA7FF4E1AD23EA2829407C85E586727488B751B2DB9502BC7B228A3FD68B6E
310
A65A22397E690AA8D158D7E404EC8CDA235CC3B7D1898680131CEC2CDF2638C65196279577750F15884AEE19F94199155B92B13297978469D4F8D358DF0AEF7631E28DC8F0D9F437D5D39A83B2231A1D52D543813A824EF8D44BCFF2FA6A31BD1E8DAD87F1CCB526B3879935BF59CDADD5C37479BB1CDD4CA7B3556B516589
310
EF352754B706114D9C885EC9131DE6EFEB43D99AFE2391C2F958179413D7CFEF6B1B6DB1E7600F00DE6E5C67454A339A4BA2E0FBA85ED26F045D454F463DBFCE484C2F90F2E5E3666003662ED8F755951A7D1BECD5B30B550B2785C8E7320B7292A4838DDA71BBC863ED7613CAF659337A3354231D4FF4A182A54904C2898C
310
98B28C4AD0CE056CCF332A80986E571EE9DBC305BB5FEB7E509220A58D25CF042D712A806AC0AD0C657FDEF80D2D9CEAA2EE4D1C76F60BFE74219A06527D6F82DF6412526107381E55E353090704D085B52408A8913C4ED159D79BDA71BB4BC506F4831350EB6F975CD22D69BF7AC49B91A2C0A9DDA3D5CA36AD20FC478E37
310
E61844E2352865EBCB61A275A65283CAAA9DD27703B4102F5AF51EF5F573B75CBB5AD38BC845F7A49F82A0966A49C2E3EA5EA0ECD326CD965F1DB402C6FA8B51A4658C5C5E2EC9E214602E55810345408596591009A82E7E7FFACA19EEA299B14A0081A705CB3296EBC14CDF658DCD336EA6D1136881AAEB87B81AB9EE53D5
310
F5EB8BC8362082DA24122F98680A4E7930C01A0079749CEA14382A0783E5EBA5A10F8C098456A03D6A4AEB6BB881E2513747552A5DB22C7EDAF83BD5528081A365F7FF06504B0304140006080000CC70623B000000000000000000000000350000006662782F41393633353835312D344632462D344230382D423046372D37
310
39314545314133324237412F76657274696365732E62696E504B0304140006080800CC70623BF270F1330600000004000000360000006662782F41393633353835312D344632462D344230382D423046372D3739314545314133324237412F747269616E676C65732E62696E636660600000504B0304140006080000CC7062
310
3B000000000000000000000000370000006662782F41393633353835312D344632462D344230382D423046372D3739314545314133324237412F617474726962757465732E62696E504B0304140006080800CC70623B08DA0BD19000000041010000360000006662782F41393633353835312D344632462D344230382D4230
310
46372D3739314545314133324237412F6469726563746F72792E786D6C858F410AC3201045AF22B36F53E9A60B35CBEEBAE80D244E44489C6234F4F835464A48035D0DF398FF9F8AF63D0E6CC63039F212F8F9020C7D47C6792B21C5FE7403D62A1188E2E60C98D7234A5830286103A55745067B9D86B8A3CF9C7F90C11DE6
310
07FB144396D7B6A82D282E9A152AD114D5EF2CB866EEE831B8EEA07A7BB5A8D7D61A2BAAEB7FD5F70921FF497D00504B0304140006080800CC70623BEDD1DC58FD000000A00100003B0000006662782F41393633353835312D344632462D344230382D423046372D3739314545314133324237412F7265736F75726365732F
310
636F72652E786D6C8D504B6E833010BD0A9A6D65B00922041947112427E8052C33A156828DFCA97AFC9A40A576D7CDCCE87D344F8F9FBFE667F689CE6B6B3A6039850C8DB2A336530731DC4903D95970676DF82583CCC8193B5861107C72362E3BA4AC096842428D1D7107A5F7182053CF7474E0D507CE32973124857FE48B
310
540F3961CEF244279DE03EB81420DB9EAC1384436FA353E879B1B182C7A8C75DA3C7F453DF353A1075D537A7BA6464B8F535A99AE14A9A2BBD90E350DD183B5CFABE3AF262350B1EF4FC9351399401471025A527C218A1E53BAB5A5AB765F5469B96525EACF23FA6B88CFF34456DC2A1DCE36E360F82A5202F42F062ED2BAD
310
579969AFDD8A6F504B010214000A0000080000CC70623B3DEE336E79000000790000001B00000000000000000000000000000000006175746F6465736B2D64657369676E2D7061636B6167652E786D6C504B01021400140006080800CC70623BD486FD9CA0000000F40000001300000000000000000000000000B20000005B
310
436F6E74656E745F54797065735D2E786D6C504B01021400140006080800CC70623B853B8169EB0000007C010000080000000000000000000000000083010000636F72652E786D6C504B01021400140006080800CC70623B55019EA25F0000007C000000070000000000000000000000000094020000636E782E786D6C504B
310
01021400140006080800CC70623BDBABAAF470010000D40300000C00000000000000000000000000180300006662782F636F72652E786D6C504B01021400140006080800CC70623B9C113CC27E0000009D0000000B00000000000000000000000000B20400006662782F636E782E786D6C504B01021400140006080800CC70
310
623B7DF2F77C2A010000120200003100000000000000000000000000590500006662782F41393633353835312D344632462D344230382D423046372D3739314545314133324237412F636F72652E786D6C504B01021400140006080800CC70623BAD7543B64E010000330300003000000000000000000000000000D2060000
310
6662782F41393633353835312D344632462D344230382D423046372D3739314545314133324237412F636E782E786D6C504B01021400140006080800CC70623BE75B7789680500003C10000034000000000000000000000000006E0800006662782F41393633353835312D344632462D344230382D423046372D3739314545
310
314133324237412F6F626A656374732E786D6C504B01021400140006080000CC70623B0000000000000000000000003500000000000000000000000000280E00006662782F41393633353835312D344632462D344230382D423046372D3739314545314133324237412F76657274696365732E62696E504B01021400140006
310
080800CC70623BF270F133060000000400000036000000000000000000000000007B0E00006662782F41393633353835312D344632462D344230382D423046372D3739314545314133324237412F747269616E676C65732E62696E504B01021400140006080000CC70623B0000000000000000000000003700000000000000
310
000000000000D50E00006662782F41393633353835312D344632462D344230382D423046372D3739314545314133324237412F617474726962757465732E62696E504B01021400140006080800CC70623B08DA0BD1900000004101000036000000000000000000000000002A0F00006662782F41393633353835312D344632
310
462D344230382D423046372D3739314545314133324237412F6469726563746F72792E786D6C504B01021400140006080800CC70623BEDD1DC58FD000000A00100003B000000000000000000000000000E1000006662782F41393633353835312D344632462D344230382D423046372D3739314545314133324237412F7265
310
736F75726365732F636F72652E786D6C504B0506000000000E000E0080040000641100000000
  0
XRECORD
  5
1F8
102
{ACAD_REACTORS
330
1F7
102
}
330
1F7
100
AcDbXrecord
280
     1
 70
     1
 90
429727718
  1
30362254-06B7-45E0-A893-8CFA70E3D6BC
310
504B03040A0000080000CC70623B3DEE336E79000000790000001B0000006175746F6465736B2D64657369676E2D7061636B6167652E786D6C3C3F786D6C2076657273696F6E3D22312E302220656E636F64696E673D227574662D3822203F3E3C666F726D6174733E3C666F726D61743E687474703A2F2F736368656D612E
310
6175746F6465736B2E636F6D2F64657369676E2D7061636B6167652F323030393C2F666F726D61743E3C2F666F726D6174733E504B0304140006080800CC70623BD486FD9CA0000000F4000000130000005B436F6E74656E745F54797065735D2E786D6C7D8EC10E82300C865F65E91D8A1E8C310C0EEA1BF002731658846E
310
D98AC1B77784ABF1D8FE5FBFBF75BBCE937A534CCEB38643598122B6FEE978D0B0485F9C41B54DDD7D022595594E1A469170414C76A4D9A4D207E29CF43ECE46F218070CC6BECC4078ACAA135ACF422C856C0E68EA1BF5669944DDD7BCDE7B1F8E415D77AECB980613C2E4AC91FC167A2B244592486606FC29C8FD7F045B9A
310
EF7053A7E60B504B0304140006080800CC70623B1EC5D7A3EB0000007C01000008000000636F72652E786D6C8D90416EC3201045AF82665B6103C6756C6122AB4D4ED00B204C5C94182C03558F5F9C3852BBEB6A467FFE9B197D71FC9E6FE8CBACC17AD7032D0820E3B41FAD9B7A48F1820F808E52ACDEC75F36404ECDA687
310
4D0629A6D5A76597B477D1B89855E747B38B2A041301E95B6E7A08FAD3CCAA50296647B8168BD2573599823EBB0CA76447F43862C7BCCF5EAC59410E4DDD9C7973C2755553CCCFA4C603E3040F1565ED3B1FDE4E432BCA0D9622DAF9795FAF464533826484B498524CD807E51D79ED187F21878E10516EF63F505AC67F42C9
310
BA58B1FDDD071640D2FCC87D2045B96591CB3DA85CB7DCE40F504B0304140006080800CC70623B55019EA25F0000007C00000007000000636E782E786D6C4DCB3B0E80201045D1AD90E915ED2CF8AC45050C11660C8261F98AB1B07AC9C97D42D718D865D3E909258CFD00CCE24AC6E326A164D74DC0B4128928FF32603847
310
2BA13128B1252AC747C6BAB984FC68F0B87FE8960A5C09FE86CFB69FBA01504B0304140006080800CC70623B8C9102E971010000D40300000C0000006662782F636F72652E786D6CC5535B6E833010BC8AE5DF0A6C08340F1947A84D4ED00B38C6A128602363A31CBFCB234A53A551FA553EC09AD9F5CE8C31DB9E9B1AF5CA
310
7695D1198E428A91D2D214952E33ECDD315861B4E5CC1AE3BE9561A445A3323CC098B3D21ADFCE9034DA29ED00D5A6503328BA4E398C640D8B0C77F253352214DE4145770A5B214FA2546114020D759C75CE8200340D19DE981F0F6746269C33EFAB6266AB02A655C74A59CCF365BADC27CB5D902ED22848F6340DF238A141
310
BE88E2F57B92BFEDF23523433367AE6A2EEAA455C2A902F398D2751045018D3FA264435F3771F242571B4A1919CA6F9A7C5B3CD9E42BED16F12C776AEB308F40C848FC700B1139D4891EF410CEC810227CC6846F8386402064270EF5C5C709A05E49676C024C61FC95EA45ED154CA5211D1FF4FB8291A913A68E9B83EBBB33
310
E2A7673CDE118E5AE8124C0807CB8377834E366998436B950D7A7746DAD846D4CFD978E0F04FD455FC5D49D2D4C6FE9722321F10997F0F32DC47FE05504B0304140006080800CC70623BFFEA85907E0000009D0000000B0000006662782F636E782E786D6C4DCCD10A83201886E15B91FFDC95D95A811AB6F23E625948A6C3
310
E9D8E5AF46073BFAE0E1E365ED67B3E8ADC3CB78C7815C7240DA3DFC64DCC221C519D7805AC182F7F1EF06C88D9BE6703008B6049F9E274D7A1E938DBB5AE3D6131B2589BA0D3D965551E0B2EA732C9B9A624AAEB41E3A557677029960D9AFB4EF11165F504B0304140006080800CC70623B4FEEA4082C0100001202000031
310
0000006662782F39464131463745442D413632322D343644302D413938332D3331353338454246344243312F636F72652E786D6C8D515B6EC32010BC0AE2AB55850DD871ED0813254D72825EC00192A2C460F1A872FC42ED48ED5F7E00CDCECCCEB26C731F6FE05B39AFADE921293004CA082BB5B9F43086336A21D870E6AC
310
0D7F68109861543DCC30E4ECE26C9C164858139409093556AA051CBC570102714B8F1E7AF1A5C6A11862480C7F2DA6415C878B2A4891CA89C7990F2E050073937C42DE1DB7E4F87ED8A36D4329AA9B3D46DBAEAD504556557BD81DEBDD0761E52CE42C462D17B996298E3E6BE59E35C962CE821E1FF18553435012728A7187
310
0841987E927A8D9B35ADDF70BBC6989599FE4F1427F9A4286A132ABAC49D651EF234CD5CE04CDA78BA3DC2A8FB645D00B9DF8B57E215725C60BCA2A463E54C4CE327C7A65E1C7DB02E7DEFCBF594B864C5CA6CDBD49C957943E9FA5D5FBAF336F90F504B0304140006080800CC70623BAD7543B64E01000033030000300000
310
006662782F39464131463745442D413632322D343644302D413938332D3331353338454246344243312F636E782E786D6CD593CD6EC32010845F0571AD6CE3D48AD20813A9873E410FBD12D82434182C7EAAE6EDBB2424CD25871E7B41D6EC30B3FA84F9E67BB2E40B4234DE8DB46F1925E094D7C6ED479AD3AE5951B2113C
310
789FEE6C943839C1488B4C05DF079FE72A69D8C96C13AAD6B8631503449F83828872B949AC57D26200B826A308D316B4064D6E46FCDA41C05550DC9E483A00797BFD207EFB092A45DE9514C1BBD22178396BD39D891265658C238DEA00936C654E5E433CB65A26D9F6EDB5EBC14EBF49A45CB856E66048291F6939A9A81BB5
310
C8917738143CA680F4AA299D66A042CEB3354A2684DC9D8D178FE0D9B8B41CAAD720F880EE7EF93C0C18769E099ECC04D5A102C8049A8A05632F4DDF376CF1DE0F6BB65C2F8627B65A33C6BB62177CEBBDAD973006829F89F22E814B54F4BC2BE347F8AA8F681390B50FA73F804400B5F542E796F19FF974E7F78DB802FE05
310
E207504B0304140006080800CC70623B16AB87BA640500003C100000340000006662782F39464131463745442D413632322D343644302D413938332D3331353338454246344243312F6F626A656374732E786D6CAD575B6FA33818FD2B887DE6924B3BED8A326A92B68A663B534DD4D13E548A0C38942D60649B369D5FBFC7
310
600890A493BDE42160637FD7F31D7FF63E6FB3D478A55C242CBF3247B66B1A340F5994E4F19559CA8D75611A9F7D8F33263BCB4C232719BD32D5B4E97B316765A1A722BA21652A07B3B7B33F0D11D29C9A46981221AE4C113ED38CD8A4942CA2E2C58E882476BCD9DA23BB5ED8171B73523C0F841684D35CC252CCE79062D4
310
468DFA43D7747CCF51DF7D4FFDEB5593E3AB9CCA9FBEFE241792E4E19EB28198C968BAB8199F5D5A67D3E9C49A9E8F47D6EC76B6B0469F26EEFC7C3EBFBCBEB98462213924694B38DD98FE1D62C393D073EA4FADC5DAF04326852CCF6958F90F0F2B9BB5C48816348F90C7840A68EB78EDF68723159BCEE7891A6B95DDE9D3
310
BCEAEEE8086A6C6F9E5D4B59F0175C10A7A0820BAA5055C7473B5AE3CFDD452D602CD5DF12616444529E90D448938013FE6EFA58AA96F85E4F8C42275708571E98FE6827AF6B2B4AE3D7D83D64E5A64C53054DD3AF90BD06FEA9149565C94FCA0F6B834DC85599E4F2423B24DF0B6AFA979E534DFA9E7A4CC6FA631D486393
310
921829879BF5D781A373557BCB85E97FB90DB62B558F8795179C15944B051F40AB495CF35451D26A4727654E6D8033BD98EF82F21D91FF8AF2DD9982BCF1643BDD4EB516C9492E368C67C88DED563FC36D5EACF66DFF057C3658BDBFA69DF9578B3DA735B64F18C7F20770A9D45CFCF7FCF563D6456A277DBEF78A02637CA2
310
43B90A490AEAB94F72244481D24819A6C0E59B606BFA4B3025981DBB48EAB701D97BF19C577CC77F2D1B6C55A9EF3C732474C0B727303F625995056C3B02963D9EAC146BE78EC5FCEC7FA999EBC5EACBAAE41B12D27B4D2C0BBA49F244E2ECDC81B76B502F113D8F5EE8FB1BE3111CDD4FC2AA9B844CAB1288B68AB90A7CDC
310
1C166AB0D3DC5310625FCC14E779BFD0709F8890A629C9292B1B2DED31A4B0DA928CEE135085754027E3018A397D4D5427D15BD1330B677DC8934285AC3DF45A9EB68FF8F2B8FC0A509AFEECFD0FF2DE25CC6047F7214B195F07EFEB9A094D800F7BFAE8FED187B78EA8A3A400F115961BCAD1215E47C966530AF0EE8128FE
310
58CEBB996A8964FFA529A046635D9353B0336A8F700DDF46271A024E70B0B37C9DE01847591E54DED53D54202AB947E4076556AC49C6CA5C9E1226B7F1A7B1BE15DEED62C41B91E1B3E9AFAAA735036547343A925075041DF0A9979E893B391F8FCFA6967B3EFB644DCF6E5CEBFAE272625DCC6FAF3FB93793C5F90CE1EF57
310
407342756B10D1C489E8953CD1617E5CEECAD6F4EF8914CE5D5D504E5C3F1F9736DA62CFC11E00BCDDB8CC8A9466349744C1F75EBDA4DF09BA8A9E8C7A7E9991989E20E5DBDD6A6003664ED8F7A04A8DBE0DF6EAD9B9AA858342E47399053949D2C146EDB85DE4B176BB0965FBAC19BD19AA918E27FA50C1D22402E144464C
310
59462568E704B6E71915404CB72B8FF4EDE184DDAF753F284990D2C6926782963815403548A70C657FDEF80D2D9CEAA2AE4C1C76F60BFE74219A06527D6582DF6412526107381E55E353090704D085B52408D0933C4ED159D79BDA71BB4BC506F4831350EB6F979CD22D69BF7AC49B91A2C0A9DDA3D5CA36AD20FC478E37E6
310
1844E2352865EBCB6EA275A652E3836BE04EFB400BF1A2556F515F1FBB35B2AB35BD889C744FFA1004B5544B121E57F70215746DD2F5E2C1412B602CBF19455AC6C8E5E9922C4E01E65215385004546899059180EAFCF7A707CE7017CD8CDB0410789AB32C63B91E5CEBBBACB17AC6CD347A022D5075FD106377347AAABA7E
310
7D11590744509B44E205134DC1290F06580320F78E537D3D73540E06CB970B431F185308AD40BBD794D6D77003C5A36E8EAA54BA64597CD8F83BD552A080A365F7FF06504B0304140006080000CC70623B000000000000000000000000350000006662782F39464131463745442D413632322D343644302D413938332D3331
310
353338454246344243312F76657274696365732E62696E504B0304140006080800CC70623BF270F1330600000004000000360000006662782F39464131463745442D413632322D343644302D413938332D3331353338454246344243312F747269616E676C65732E62696E636660600000504B0304140006080000CC70623B
310
000000000000000000000000370000006662782F39464131463745442D413632322D343644302D413938332D3331353338454246344243312F617474726962757465732E62696E504B0304140006080800CC70623B08DA0BD19000000041010000360000006662782F39464131463745442D413632322D343644302D413938
310
332D3331353338454246344243312F6469726563746F72792E786D6C858F410AC3201045AF22B36F53E9A60B35CBEEBAE80D244E44489C6234F4F835464A48035D0DF398FF9F8AF63D0E6CC63039F212F8F9020C7D47C6792B21C5FE7403D62A1188E2E60C98D7234A5830286103A55745067B9D86B8A3CF9C7F90C11DE607
310
FB144396D7B6A82D282E9A152AD114D5EF2CB866EEE831B8EEA07A7BB5A8D7D61A2BAAEB7FD5F70921FF497D00504B0304140006080800CC70623B0D6EF93BFE000000A00100003B0000006662782F39464131463745442D413632322D343644302D413938332D3331353338454246344243312F7265736F75726365732F63
310
6F72652E786D6C8D50596E833010BD0A9ADFCA60B334011947A8694ED00B586642AC041B79A97AFC9A40A5F6AF3F33A3B7689E1E3F7DCD8FEC139DD7D6F4C0720A191A65476DA61E62B892236427C19DB5E1970C322367EC618541F0C9D9B8EC90B226A009093576C41D94DE63804C3DD2D18357379C652E63480A7FCF17A9
310
EE72C29CE5894E3AC17D702940B63D59270887DE46A7D0F36263058F518FBB468FE9A7BE6A7420864373B8D4873369AA8691FA421B3294352543C5CAF65C0F6FEF43CB8BD52C78D0F34F46E550061C419494B6843142CB0F5677F4B52BEB177AEC28E5C52AFF638ACBF84F53D42654E51E77B379102C05791282176B5F693D
310
CB4C7BED567C03504B010214000A0000080000CC70623B3DEE336E79000000790000001B00000000000000000000000000000000006175746F6465736B2D64657369676E2D7061636B6167652E786D6C504B01021400140006080800CC70623BD486FD9CA0000000F40000001300000000000000000000000000B20000005B
310
436F6E74656E745F54797065735D2E786D6C504B01021400140006080800CC70623B1EC5D7A3EB0000007C010000080000000000000000000000000083010000636F72652E786D6C504B01021400140006080800CC70623B55019EA25F0000007C000000070000000000000000000000000094020000636E782E786D6C504B
310
01021400140006080800CC70623B8C9102E971010000D40300000C00000000000000000000000000180300006662782F636F72652E786D6C504B01021400140006080800CC70623BFFEA85907E0000009D0000000B00000000000000000000000000B30400006662782F636E782E786D6C504B01021400140006080800CC70
310
623B4FEEA4082C0100001202000031000000000000000000000000005A0500006662782F39464131463745442D413632322D343644302D413938332D3331353338454246344243312F636F72652E786D6C504B01021400140006080800CC70623BAD7543B64E010000330300003000000000000000000000000000D5060000
310
6662782F39464131463745442D413632322D343644302D413938332D3331353338454246344243312F636E782E786D6C504B01021400140006080800CC70623B16AB87BA640500003C1000003400000000000000000000000000710800006662782F39464131463745442D413632322D343644302D413938332D3331353338
310
454246344243312F6F626A656374732E786D6C504B01021400140006080000CC70623B0000000000000000000000003500000000000000000000000000270E00006662782F39464131463745442D413632322D343644302D413938332D3331353338454246344243312F76657274696365732E62696E504B01021400140006
310
080800CC70623BF270F133060000000400000036000000000000000000000000007A0E00006662782F39464131463745442D413632322D343644302D413938332D3331353338454246344243312F747269616E676C65732E62696E504B01021400140006080000CC70623B0000000000000000000000003700000000000000
310
000000000000D40E00006662782F39464131463745442D413632322D343644302D413938332D3331353338454246344243312F617474726962757465732E62696E504B01021400140006080800CC70623B08DA0BD190000000410100003600000000000000000000000000290F00006662782F39464131463745442D413632
310
322D343644302D413938332D3331353338454246344243312F6469726563746F72792E786D6C504B01021400140006080800CC70623B0D6EF93BFE000000A00100003B000000000000000000000000000D1000006662782F39464131463745442D413632322D343644302D413938332D3331353338454246344243312F7265
310
736F75726365732F636F72652E786D6C504B0506000000000E000E0080040000641100000000
  0
XRECORD
  5
175
102
{ACAD_REACTORS
330
173
102
}
330
173
100
AcDbXrecord
280
     1
270
     1
271
     1
  0
XRECORD
  5
174
102
{ACAD_REACTORS
330
173
102
}
330
173
100
AcDbXrecord
280
     1
270
     1
271
     1
  0
XRECORD
  5
1FB
102
{ACAD_REACTORS
330
173
102
}
330
173
100
AcDbXrecord
280
     1
 70
     0
 90
1673772943
  1
ECE7A1D2-D628-4531-984C-D00F80459256
310
504B03040A0000080000CC70623B3DEE336E79000000790000001B0000006175746F6465736B2D64657369676E2D7061636B6167652E786D6C3C3F786D6C2076657273696F6E3D22312E302220656E636F64696E673D227574662D3822203F3E3C666F726D6174733E3C666F726D61743E687474703A2F2F736368656D612E
310
6175746F6465736B2E636F6D2F64657369676E2D7061636B6167652F323030393C2F666F726D61743E3C2F666F726D6174733E504B0304140006080800CC70623BD486FD9CA0000000F4000000130000005B436F6E74656E745F54797065735D2E786D6C7D8EC10E82300C865F65E91D8A1E8C310C0EEA1BF002731658846E
310
D98AC1B77784ABF1D8FE5FBFBF75BBCE937A534CCEB38643598122B6FEE978D0B0485F9C41B54DDD7D022595594E1A469170414C76A4D9A4D207E29CF43ECE46F218070CC6BECC4078ACAA135ACF422C856C0E68EA1BF5669944DDD7BCDE7B1F8E415D77AECB980613C2E4AC91FC167A2B244592486606FC29C8FD7F045B9A
310
EF7053A7E60B504B0304140006080800CC70623BD9DDAED0EC0000007C01000008000000636F72652E786D6C8D90416EC3201045AF82665B61836D9CD8C2444DD39CA01740405C94182C03558F5F9C3852BBEB6A467FFE9B197D7EF89E6EE8CB2CC17A37002D0820E394D7D68D03A478C17B4007C117EFE32F1B20272733C0
310
2A83E0E3E2D3BC49CABB685CCCAAF3DA6CA20CC14440EA969B0182FA34932C648AD911AEC52CD5558EA6A0CF2EC329598D1E47ACCEFBECC59A050463A7EA5833865FEBDD0E37353BE3EE8DBDE3F6786A48D375FBF6CC78B9C282473B3DEFABC5C86834888A900E538A49F5419B9EB47DD5BC907D4F082F57FB1F28CDFA9F50
310
B22ED6D5F6EE030B20687EE43E10BC5CB3C8E51E54AE6B6EE207504B0304140006080800CC70623B55019EA25F0000007C00000007000000636E782E786D6C4DCB3B0E80201045D1AD90E915ED2CF8AC45050C11660C8261F98AB1B07AC9C97D42D718D865D3E909258CFD00CCE24AC6E326A164D74DC0B4128928FF326038
310
472BA13128B1252AC747C6BAB984FC68F0B87FE8960A5C09FE86CFB69FBA01504B0304140006080800CC70623BA24EB22D72010000D40300000C0000006662782F636F72652E786D6CC5535B6E833010BC8AE5DF0A6C5E49888CA3A6694ED00B38E05014B091B1518EDFE511A5A9D228FD2A1F60CDEC7A67C6986DCE4D8D7A
310
69BA4AAB0C073EC548AA5C17952A33ECECD15B61B4E1CC686DBF9561A44423333CC098B3D268D7CE50AE9595CA02AA74216750749DB418E5352C32DCE59FB211BE70162ABA93DF8AFC244AE9073ED050C759670D0840D390E18DF9F1706664C23973AE2A66B62A605A75ACA4C13C4976E1364A12EF355A2EBD384AF65EFA96
310
BC7B8BED2EA6719AAE16FB8491A199335B351775B991C2CA02F390D2D40B028F861F41BCA68B7518BFD0D59A524686F29B26D7164F36B94AD9289CE54E6D1DE6010819891F6E21228B3AD1831EC219194284CF98F06DD01008846CC5A1BEF83801D4CBDC6A1303536877A57A513B0953A94FC707FDBE6064EA84A9E3E6E0FA
310
EE8CF0E9198F7784A316AA0413C2C2F2E0ECA0934D1AE6D05A69BCDE9E91D2A611F573361E38FC1375157F5752AE6B6DFE4B11990F88CCBF0719EE23FF02504B0304140006080800CC70623B408A7D3B7C0000009D0000000B0000006662782F636E782E786D6C4DCCD10A83201886E15B91FFDC552A92A0064DBC8F581632
310
D3703A76F9ABD1C18E3E78F878E5F0D9027ABBFCF2292AE86E2D20171F69F6715550CB827B40839639A5F2770314A7CD293819B45C73AAFB45B35BA61ACAA1C1C7E7855C58C15BC331339661262CC762340413D68D77DA5B42298546CBE6573AF60CEB2F504B0304140006080800CC70623B449FB9BD290100001202000031
310
0000006662782F36394639363044362D344446342D343946362D394244322D3234314243333846323333332F636F72652E786D6C8D515B6EC32010BC0AE22B55850D98B871848994463E412FE002495162B07854397EA176A4F62F3F2C9A9D991D587EB84F37F0AD7D30CEF6905418026DA553C65E7A98E219ED203808EE9D
310
8B7F6810D871D23D2C3014FCE25D9A57483A1BB58D19B54EE9151C43D0110279CB971E06F9A5A7B11A53CC8C70ADE6515EC78BAE4895DB992778883E0700CB907242D17643D7E2538BD869608875438BBAE38922CAC8F1BDD90DB4691A5E2F42C153326A951B95E398B3D1FE599322163C9AE9115F7A3D46ADA0A018778810
310
84E907617BDCEE297BC5BB3DC6BC2EF47FA234AB2745C9D8D8D035EE220B50105E2F0DC1954B9FB747187D9F9D8FA0CCDB042D5FA0C015C65B42DF78BD10F3F3B363CB56C7109DCFDFBBB97E662ED92EB62D13BC2E1BCAE5777DB9966D8A1F504B0304140006080800CC70623BAD7543B64E01000033030000300000006662
310
782F36394639363044362D344446342D343946362D394244322D3234314243333846323333332F636E782E786D6CD593CD6EC32010845F0571AD6CE3D48AD20813A9873E410FBD12D82434182C7EAAE6EDBB2424CD25871E7B41D6EC30B3FA84F9E67BB2E40B4234DE8DB46F1925E094D7C6ED479AD3AE5951B2113C789FEE
310
6C943839C1488B4C05DF079FE72A69D8C96C13AAD6B8631503449F83828872B949AC57D26200B826A308D316B4064D6E46FCDA41C05550DC9E483A00797BFD207EFB092A45DE9514C1BBD22178396BD39D891265658C238DEA00936C654E5E433CB65A26D9F6EDB5EBC14EBF49A45CB856E66048291F6939A9A81BB5C89177
310
38143CA680F4AA299D66A042CEB3354A2684DC9D8D178FE0D9B8B41CAAD720F880EE7EF93C0C18769E099ECC04D5A102C8049A8A05632F4DDF376CF1DE0F6BB65C2F8627B65A33C6BB62177CEBBDAD973006829F89F22E814B54F4BC2BE347F8AA8F681390B50FA73F804400B5F542E796F19FF974E7F78DB802FE05E20750
310
4B0304140006080800CC70623B8D05915C650500003B100000340000006662782F36394639363044362D344446342D343946362D394244322D3234314243333846323333332F6F626A656374732E786D6CAD575B6FA33814FE2B887D06429276DA1565D4266D158D3A339A6846FB502932E050B66023DB74D2FDF5FB190C01
310
9276B2973C046C8ECFF53B17071F77456EBD502133CEAE6CDF9DD81665314F32965ED995DA3A17B6F5310C04E7AA47665B8C14F4CAD6DB7618A48257A5D94AE89654B91AEDDEDDFC61C998326A5B714EA4BCB265FC440BE2924AF184CA6737218AB8E976E7FA6E4338649B0A523E8D98964450A6A029F619B8588D52FE7039
310
B1BD30F0F4F730D0FF866AF6369557DB33949F31A9088B0F848DD8CCFCF9F2767A76E99CCDE733677E3EF59D9BBB9BA5E37F984D16E78BC5E5F5ED25044B25C0C96822E8D60EEFE11B91C581D77CEA34368A1F5329E68CD1B8B61F16D63A1B8E092D294B10C78C4A48EB593D192E7DED9BDEE7995E1B91FDEDD3ACEA9FE831
310
6A756F9F7D4D79F4274C90A7A04248AA51D5F8C718DAE06FB2F75AC4796EBE65D22A88A22223B995679120E2D50E41AA49C260C046A35368846B0BECD0DFF3EBEB8AD4F835768F69B9ADF25C43D30E6B646F807FAA64AD59F61715C7A54127C4AACA98BA3006A9D792DAE165E0D59B61A01FB3A9F9D838D2DAE62445C86166
310
F37564E842E7DE6A69879FEEA2DD5AE7E371E1A5E025154AC307D06A03D73EB5978C58FFA4C8E9033066E0F3BD53BEC1F39F91BE7B55103791EDE6BBB991A2046172CB4581D8B893FA674DDA17A77B3B7C413D1B511FD2743BFF8A38F03A658705E3ADF8015C3A3417FF3D7E439FF591DA0B5F18BC20C1B8981957AE6392A3
310
F43C640C01D1A0B4728E2DD4F26DB4B3C3152A252A3B4E913CEC1C72F012782FF88EFF8637AA552DBEF76408E8A8DE9E50F9E1CB3A2DA0DB1B6039A893B56063DC5B3E3FFB5F72E67AB9FEB4AEC496C4F4C1149625DD662C53E89D7BF0F6151A046260D1337DFDC94502430F83B0EE07A130A224BCAD7DAE1D9FB6CD422FF6
310
920702629C4BB9AE79C12F243C6432A6794E18E5552BA56B431AAB5D91317302B2B071E86C3A42B1A02F999E24061403B5D0EB639195DA655DD3EBEAB4FB862DDF579F014AD0E73C22F99E28DA57FB98E75C6CA2D74D53086D600F4786E0FE3144B771A8A7B900F03594DB8A633CBC49B2EDB69228BB479CF863B5E807AAAB
310
23872F6DFEB4129B949CA33823F58830E86D65621E10047D9DB34D862E8EAC3C2ABC2F7B2C40D67CDFE01F5545B92105AF983AC54D93D69E56FB8E797F88913F898A9FEC705D3F9D1B54EC8426FB500D40A03BD0119B06E1B95DDC7EB8F6975367793EBD70E66733DFB9BC982F9CE564727731999F5D4ECFCE3B8D6A4DC2A0
310
6D50FD148437D110834A64C6CDDF57FBACB5C307A2A477DFE4939736CFEF2B175371E0E10CF0DD1D5C15654E0BCA14D1E87DD02FF93782A162C0A3D95F1524A52770F972BF1EE9809D13CE7DD599467F8ECE9ADD85CE85A34CD45355448C64F9E8A031DC2D596ACC6E5DD93D9B82DE2EF5CAF81363A8E47996A0DE24564A79
310
4115AACE09C55E14540231FDA13C319787134EBF34E3A022514E5B4D9E0826E25C02D5805B15ABE1BEF51B26383D445DD9E875EE33FE4C22DA16427D65A3BCA92CA6D28DD01DF5DC53330704308475351050232CCD31583787BA75774AFB06E5070DD0C8EF484E19968C5D83BA5B90B244D31E54D55A372320FE4786B7EA58
310
44E135AA5467CB7EA333A61683CC6A8C3257034C10CF46F40EF9F5BE59BE5BD30C3C72D235E95D10345C1D45445A5F0BB47E46A5EBE5570F9380B5FA629579952296A773720405982B9DE04011506178964401AA8BDF1FBF0A8EAB6861DD6580C0E38217056766716DAEB2D6FA0917D3E4116581EADB879C4E7CFFB11EFACD
310
3D641311495D92C8676CB409A72D18610D803CE8A626049E8EC1887CB5B44CC39883690DDA8399B4B9855B481E7D71D4A9D22F96E5BB73BF5793020C02137BF837504B0304140006080000CC70623B000000000000000000000000350000006662782F36394639363044362D344446342D343946362D394244322D32343142
310
43333846323333332F76657274696365732E62696E504B0304140006080800CC70623BF270F1330600000004000000360000006662782F36394639363044362D344446342D343946362D394244322D3234314243333846323333332F747269616E676C65732E62696E636660600000504B0304140006080000CC70623B0000
310
00000000000000000000370000006662782F36394639363044362D344446342D343946362D394244322D3234314243333846323333332F617474726962757465732E62696E504B0304140006080800CC70623B08DA0BD19000000041010000360000006662782F36394639363044362D344446342D343946362D394244322D
310
3234314243333846323333332F6469726563746F72792E786D6C858F410AC3201045AF22B36F53E9A60B35CBEEBAE80D244E44489C6234F4F835464A48035D0DF398FF9F8AF63D0E6CC63039F212F8F9020C7D47C6792B21C5FE7403D62A1188E2E60C98D7234A5830286103A55745067B9D86B8A3CF9C7F90C11DE607FB14
310
4396D7B6A82D282E9A152AD114D5EF2CB866EEE831B8EEA07A7BB5A8D7D61A2BAAEB7FD5F70921FF497D00504B0304140006080800CC70623BCA768048FE000000A00100003B0000006662782F36394639363044362D344446342D343946362D394244322D3234314243333846323333332F7265736F75726365732F636F72
310
652E786D6C8D50596E833010BD0A9ADFCA60D600328E9AA639412F609909B1126CE4A5EAF16B0295DABFFECC8CDEA2797AECF8353F924FB44E193D409E5248504B332A3D0D10FC95B4901C39B3C6F85F3248B49871801506CE266BC2B243D2688FDA47549B11775038871E12F988C7004EDE7016A9083E2ADC3D5D84BC8B09
310
D33C8D74D471E6BC8D0192EDC93A815B742658898E651BCB59086ADC356A8C3FD555A1055ED7E7E254D615792D0F075295F585746FF53B694EE78A565DD736979A65AB9933AFE69F8CD2A2F038022F28ED489E135A7CE4554F9BBEA85E68DB53CAB255FEC71496F19FA6A0B42F8B3DEE6673C0F318E4497096AD7DC5F52C33
310
EEB55BFE0D504B010214000A0000080000CC70623B3DEE336E79000000790000001B00000000000000000000000000000000006175746F6465736B2D64657369676E2D7061636B6167652E786D6C504B01021400140006080800CC70623BD486FD9CA0000000F40000001300000000000000000000000000B20000005B436F
310
6E74656E745F54797065735D2E786D6C504B01021400140006080800CC70623BD9DDAED0EC0000007C010000080000000000000000000000000083010000636F72652E786D6C504B01021400140006080800CC70623B55019EA25F0000007C000000070000000000000000000000000095020000636E782E786D6C504B0102
310
1400140006080800CC70623BA24EB22D72010000D40300000C00000000000000000000000000190300006662782F636F72652E786D6C504B01021400140006080800CC70623B408A7D3B7C0000009D0000000B00000000000000000000000000B50400006662782F636E782E786D6C504B01021400140006080800CC70623B
310
449FB9BD290100001202000031000000000000000000000000005A0500006662782F36394639363044362D344446342D343946362D394244322D3234314243333846323333332F636F72652E786D6C504B01021400140006080800CC70623BAD7543B64E010000330300003000000000000000000000000000D20600006662
310
782F36394639363044362D344446342D343946362D394244322D3234314243333846323333332F636E782E786D6C504B01021400140006080800CC70623B8D05915C650500003B10000034000000000000000000000000006E0800006662782F36394639363044362D344446342D343946362D394244322D32343142433338
310
46323333332F6F626A656374732E786D6C504B01021400140006080000CC70623B0000000000000000000000003500000000000000000000000000250E00006662782F36394639363044362D344446342D343946362D394244322D3234314243333846323333332F76657274696365732E62696E504B010214001400060808
310
00CC70623BF270F13306000000040000003600000000000000000000000000780E00006662782F36394639363044362D344446342D343946362D394244322D3234314243333846323333332F747269616E676C65732E62696E504B01021400140006080000CC70623B00000000000000000000000037000000000000000000
310
00000000D20E00006662782F36394639363044362D344446342D343946362D394244322D3234314243333846323333332F617474726962757465732E62696E504B01021400140006080800CC70623B08DA0BD190000000410100003600000000000000000000000000270F00006662782F36394639363044362D344446342D
310
343946362D394244322D3234314243333846323333332F6469726563746F72792E786D6C504B01021400140006080800CC70623BCA768048FE000000A00100003B000000000000000000000000000B1000006662782F36394639363044362D344446342D343946362D394244322D3234314243333846323333332F7265736F
310
75726365732F636F72652E786D6C504B0506000000000E000E0080040000621100000000
  0
XRECORD
  5
176
102
{ACAD_REACTORS
330
173
102
}
330
173
100
AcDbXrecord
280
     1
270
     1
271
     1
  0
XRECORD
  5
177
102
{ACAD_REACTORS
330
173
102
}
330
173
100
AcDbXrecord
280
     1
270
     1
271
     1
  0
CELLSTYLEMAP
  5
D5B
102
{ACAD_REACTORS
330
162
102
}
330
162
100
AcDbCellStyleMap
 90
        3
300
CELLSTYLE
  1
TABLEFORMAT_BEGIN
 90
        5
170
     1
 91
        0
 92
    32768
 62
   257
 93
        1
300
CONTENTFORMAT
  1
CONTENTFORMAT_BEGIN
 90
        0
 91
        0
 92
      512
 93
        0
300

 40
0.0
140
1.0
 94
        5
 62
     0
340
11
144
6.0
309
CONTENTFORMAT_END
171
     1
301
MARGIN
  1
CELLMARGIN_BEGIN
 40
1.5
 40
1.5
 40
1.5
 40
1.5
 40
4.5
 40
4.5
309
CELLMARGIN_END
 94
        6
 95
        1
302
GRIDFORMAT
  1
GRIDFORMAT_BEGIN
 90
        0
 91
        1
 62
     0
 92
       -2
340
14
 93
        0
 40
1.125
309
GRIDFORMAT_END
 95
        2
302
GRIDFORMAT
  1
GRIDFORMAT_BEGIN
 90
        0
 91
        1
 62
     0
 92
       -2
340
14
 93
        0
 40
1.125
309
GRIDFORMAT_END
 95
        4
302
GRIDFORMAT
  1
GRIDFORMAT_BEGIN
 90
        0
 91
        1
 62
     0
 92
       -2
340
14
 93
        0
 40
1.125
309
GRIDFORMAT_END
 95
        8
302
GRIDFORMAT
  1
GRIDFORMAT_BEGIN
 90
        0
 91
        1
 62
     0
 92
       -2
340
14
 93
        0
 40
1.125
309
GRIDFORMAT_END
 95
       16
302
GRIDFORMAT
  1
GRIDFORMAT_BEGIN
 90
        0
 91
        1
 62
     0
 92
       -2
340
14
 93
        0
 40
1.125
309
GRIDFORMAT_END
 95
       32
302
GRIDFORMAT
  1
GRIDFORMAT_BEGIN
 90
        0
 91
        1
 62
     0
 92
       -2
340
14
 93
        0
 40
1.125
309
GRIDFORMAT_END
309
TABLEFORMAT_END
  1
CELLSTYLE_BEGIN
 90
        1
 91
        1
300
_TITLE
309
CELLSTYLE_END
300
CELLSTYLE
  1
TABLEFORMAT_BEGIN
 90
        5
170
     1
 91
        0
 92
        0
 62
   257
 93
        1
300
CONTENTFORMAT
  1
CONTENTFORMAT_BEGIN
 90
        0
 91
        0
 92
      512
 93
        0
300

 40
0.0
140
1.0
 94
        5
 62
     0
340
11
144
4.5
309
CONTENTFORMAT_END
171
     1
301
MARGIN
  1
CELLMARGIN_BEGIN
 40
1.5
 40
1.5
 40
1.5
 40
1.5
 40
4.5
 40
4.5
309
CELLMARGIN_END
 94
        6
 95
        1
302
GRIDFORMAT
  1
GRIDFORMAT_BEGIN
 90
        0
 91
        1
 62
     0
 92
       -2
340
14
 93
        0
 40
1.125
309
GRIDFORMAT_END
 95
        2
302
GRIDFORMAT
  1
GRIDFORMAT_BEGIN
 90
        0
 91
        1
 62
     0
 92
       -2
340
14
 93
        0
 40
1.125
309
GRIDFORMAT_END
 95
        4
302
GRIDFORMAT
  1
GRIDFORMAT_BEGIN
 90
        0
 91
        1
 62
     0
 92
       -2
340
14
 93
        0
 40
1.125
309
GRIDFORMAT_END
 95
        8
302
GRIDFORMAT
  1
GRIDFORMAT_BEGIN
 90
        0
 91
        1
 62
     0
 92
       -2
340
14
 93
        0
 40
1.125
309
GRIDFORMAT_END
 95
       16
302
GRIDFORMAT
  1
GRIDFORMAT_BEGIN
 90
        0
 91
        1
 62
     0
 92
       -2
340
14
 93
        0
 40
1.125
309
GRIDFORMAT_END
 95
       32
302
GRIDFORMAT
  1
GRIDFORMAT_BEGIN
 90
        0
 91
        1
 62
     0
 92
       -2
340
14
 93
        0
 40
1.125
309
GRIDFORMAT_END
309
TABLEFORMAT_END
  1
CELLSTYLE_BEGIN
 90
        2
 91
        1
300
_HEADER
309
CELLSTYLE_END
300
CELLSTYLE
  1
TABLEFORMAT_BEGIN
 90
        5
170
     1
 91
        0
 92
        0
 62
   257
 93
        1
300
CONTENTFORMAT
  1
CONTENTFORMAT_BEGIN
 90
        0
 91
        0
 92
      512
 93
        0
300

 40
0.0
140
1.0
 94
        2
 62
     0
340
11
144
4.5
309
CONTENTFORMAT_END
171
     1
301
MARGIN
  1
CELLMARGIN_BEGIN
 40
1.5
 40
1.5
 40
1.5
 40
1.5
 40
4.5
 40
4.5
309
CELLMARGIN_END
 94
        6
 95
        1
302
GRIDFORMAT
  1
GRIDFORMAT_BEGIN
 90
        0
 91
        1
 62
     0
 92
       -2
340
14
 93
        0
 40
1.125
309
GRIDFORMAT_END
 95
        2
302
GRIDFORMAT
  1
GRIDFORMAT_BEGIN
 90
        0
 91
        1
 62
     0
 92
       -2
340
14
 93
        0
 40
1.125
309
GRIDFORMAT_END
 95
        4
302
GRIDFORMAT
  1
GRIDFORMAT_BEGIN
 90
        0
 91
        1
 62
     0
 92
       -2
340
14
 93
        0
 40
1.125
309
GRIDFORMAT_END
 95
        8
302
GRIDFORMAT
  1
GRIDFORMAT_BEGIN
 90
        0
 91
        1
 62
     0
 92
       -2
340
14
 93
        0
 40
1.125
309
GRIDFORMAT_END
 95
       16
302
GRIDFORMAT
  1
GRIDFORMAT_BEGIN
 90
        0
 91
        1
 62
     0
 92
       -2
340
14
 93
        0
 40
1.125
309
GRIDFORMAT_END
 95
       32
302
GRIDFORMAT
  1
GRIDFORMAT_BEGIN
 90
        0
 91
        1
 62
     0
 92
       -2
340
14
 93
        0
 40
1.125
309
GRIDFORMAT_END
309
TABLEFORMAT_END
  1
CELLSTYLE_BEGIN
 90
        3
 91
        2
300
_DATA
309
CELLSTYLE_END
  0
ENDSEC
  0
SECTION
  2
ACDSDATA
 70
     2
 71
     8
  0
ACDSSCHEMA
 90
        0
  1
AcDb_Thumbnail_Schema
  2
AcDbDs::ID
280
    10
 91
        8
  2
Thumbnail_Data
280
    15
 91
        0
101
ACDSRECORD
 95
        0
 90
        1
  2
AcDbDs::TreatedAsObjectData
280
     1
291
     1
101
ACDSRECORD
 95
        0
 90
        2
  2
AcDbDs::Legacy
280
     1
291
     1
101
ACDSRECORD
  1
AcDbDs::ID
 90
        3
  2
AcDs:Indexable
280
     1
291
     1
101
ACDSRECORD
  1
AcDbDs::ID
 90
        4
  2
AcDbDs::HandleAttribute
280
     7
282
     1
  0
ACDSSCHEMA
 90
        1
  1
AcDbDs::TreatedAsObjectDataSchema
  2
AcDbDs::TreatedAsObjectData
280
     1
 91
        0
  0
ACDSSCHEMA
 90
        2
  1
AcDbDs::LegacySchema
  2
AcDbDs::Legacy
280
     1
 91
        0
  0
ACDSSCHEMA
 90
        3
  1
AcDbDs::IndexedPropertySchema
  2
AcDs:Indexable
280
     1
 91
        0
  0
ACDSSCHEMA
 90
        4
  1
AcDbDs::HandleAttributeSchema
  2
AcDbDs::HandleAttribute
280
     7
 91
        1
284
     1
  0
ACDSRECORD
 90
        0
  2
AcDbDs::ID
280
    10
320
22
  2
Thumbnail_Data
280
    15
 94
     1424
310
89504E470D0A1A0A0000000D4948445200000100000000770803000000DBFC6E9900000300504C5445212830FFFFFF2128300000000000000000000000000000000000000000000000000000330000660000990000CC0000FF0033000033330033660033990033CC0033FF0066000066330066660066990066CC0066FF0099
310
000099330099660099990099CC0099FF00CC0000CC3300CC6600CC9900CCCC00CCFF00FF0000FF3300FF6600FF9900FFCC00FFFF3300003300333300663300993300CC3300FF3333003333333333663333993333CC3333FF3366003366333366663366993366CC3366FF3399003399333399663399993399CC3399FF33CC00
310
33CC3333CC6633CC9933CCCC33CCFF33FF0033FF3333FF6633FF9933FFCC33FFFF6600006600336600666600996600CC6600FF6633006633336633666633996633CC6633FF6666006666336666666666996666CC6666FF6699006699336699666699996699CC6699FF66CC0066CC3366CC6666CC9966CCCC66CCFF66FF0066
310
FF3366FF6666FF9966FFCC66FFFF9900009900339900669900999900CC9900FF9933009933339933669933999933CC9933FF9966009966339966669966999966CC9966FF9999009999339999669999999999CC9999FF99CC0099CC3399CC6699CC9999CCCC99CCFF99FF0099FF3399FF6699FF9999FFCC99FFFFCC0000CC00
310
33CC0066CC0099CC00CCCC00FFCC3300CC3333CC3366CC3399CC33CCCC33FFCC6600CC6633CC6666CC6699CC66CCCC66FFCC9900CC9933CC9966CC9999CC99CCCC99FFCCCC00CCCC33CCCC66CCCC99CCCCCCCCCCFFCCFF00CCFF33CCFF66CCFF99CCFFCCCCFFFFFF0000FF0033FF0066FF0099FF00CCFF00FFFF3300FF3333
310
FF3366FF3399FF33CCFF33FFFF6600FF6633FF6666FF6699FF66CCFF66FFFF9900FF9933FF9966FF9999FF99CCFF99FFFFCC00FFCC33FFCC66FFCC99FFCCCCFFCCFFFFFF00FFFF33FFFF66FFFF99FFFFCCFFFFFF0000000D0D0D1A1A1A2828283535354343435050505D5D5D6B6B6B787878868686939393A1A1A1AEAEAEBB
310
BBBBC9C9C9D6D6D6E4E4E4F1F1F1FFFFFF0000000000000000000000000000000000000000000000000000000000002E4550F10000023A4944415478DAED9DD16EC2300C45FDFFFFEBF749B04292368D598BB46B9F3E6C12739172726DDFA46198717DE3F22F5C5A0086DF37BEA50C80C79CB9DD36B300A00628D6002B5C03
310
EED512008C140000000000006900172D9F3C80A8979BC56500E041009E3405AE49000000000000000000000000000000000000A0016078A8D30EACFF53FFF8E7304E1C808701F8344E3B0576337B72E3244EBC06F403F3B33B2771EA00BC368021E73B30B138004802889E7B5807A902F82DFEBB831ECFB6D64DF52BF5FB36
310
F88C1306B0B5F661C66D04F01E765B04B7385D002F73D77B3D1B0174A3F6B640680378BBE0CEEAD908C0FD602DD0C4E902D817C3EDC51EC0C162A88DA30B645B0B346D3FB21C9607E0D3757E0C80E505506347C80D0076F984843080C61444104CE27200688EBE2E52601727BC27D8E7F6924017971040C522B8F9208F8CC3
310
B302B0DD2ECF9480E50470711CDA006EF8E80F87A5959D200A28AE000084ABE0C9472501400A00000000000000002003E0EE7F1FA107E083ED0E5FC5380A5054407C11ECB6884401EA0AB0B0022C8F0200F0C78CA10664F401CB2E70AFA2FE510D38DCE941013514400DF8247CB559AA5E033E164C651F90060035001FD0F8
310
80F327C4CBA5330AD007B0C86F6731947743246A845040E13668398B6023E8C004AFA63F7517B0020002774C3164574053E3DA9FEDB734E405504701E55320E28532A740D0E79002748146F0FDE8D32B0023440D384C012B9302280023E4A400295019403E1F507D5354E02DBF09A0FAF70DEA5C3F61BC528AFE517E1F0000
310
000049454E44AE4260820049454E44AE42608249454E44AE426082
  0
ENDSEC
  0
EOF
